  0
SECTION
  2
HEADER
  9
$ACADVER
  1
AC1018
  9
$ACADMAINTVER
 70
     0
  9
$DWGCODEPAGE
  3
ANSI_1252
  9
$INSBASE
 10
0.0
 20
0.0
 30
0.0
  9
$EXTMIN
 10
-33.50000001621197
 20
729.487697132996
 30
0.0
  9
$EXTMAX
 10
263.4999999837861
 20
939.4876971329961
 30
0.0
  9
$LIMMIN
 10
0.0
 20
0.0
  9
$LIMMAX
 10
12.0
 20
9.0
  9
$ORTHOMODE
 70
     0
  9
$REGENMODE
 70
     1
  9
$FILLMODE
 70
     1
  9
$QTEXTMODE
 70
     0
  9
$MIRRTEXT
 70
     1
  9
$LTSCALE
 40
1.0
  9
$ATTMODE
 70
     1
  9
$TEXTSIZE
 40
0.2
  9
$TRACEWID
 40
0.05
  9
$TEXTSTYLE
  7
Standard
  9
$CLAYER
  8
0
  9
$CELTYPE
  6
ByLayer
  9
$CECOLOR
 62
   256
  9
$CELTSCALE
 40
1.0
  9
$DISPSILH
 70
     0
  9
$DIMSCALE
 40
1.0
  9
$DIMASZ
 40
0.18
  9
$DIMEXO
 40
0.0625
  9
$DIMDLI
 40
0.38
  9
$DIMRND
 40
0.0
  9
$DIMDLE
 40
0.0
  9
$DIMEXE
 40
0.18
  9
$DIMTP
 40
0.0
  9
$DIMTM
 40
0.0
  9
$DIMTXT
 40
0.18
  9
$DIMCEN
 40
0.09
  9
$DIMTSZ
 40
0.0
  9
$DIMTOL
 70
     0
  9
$DIMLIM
 70
     0
  9
$DIMTIH
 70
     1
  9
$DIMTOH
 70
     1
  9
$DIMSE1
 70
     0
  9
$DIMSE2
 70
     0
  9
$DIMTAD
 70
     0
  9
$DIMZIN
 70
     0
  9
$DIMBLK
  1

  9
$DIMASO
 70
     1
  9
$DIMSHO
 70
     1
  9
$DIMPOST
  1

  9
$DIMAPOST
  1

  9
$DIMALT
 70
     0
  9
$DIMALTD
 70
     2
  9
$DIMALTF
 40
25.4
  9
$DIMLFAC
 40
1.0
  9
$DIMTOFL
 70
     0
  9
$DIMTVP
 40
0.0
  9
$DIMTIX
 70
     0
  9
$DIMSOXD
 70
     0
  9
$DIMSAH
 70
     0
  9
$DIMBLK1
  1

  9
$DIMBLK2
  1

  9
$DIMSTYLE
  2
Standard
  9
$DIMCLRD
 70
     0
  9
$DIMCLRE
 70
     0
  9
$DIMCLRT
 70
     0
  9
$DIMTFAC
 40
1.0
  9
$DIMGAP
 40
0.09
  9
$DIMJUST
 70
     0
  9
$DIMSD1
 70
     0
  9
$DIMSD2
 70
     0
  9
$DIMTOLJ
 70
     1
  9
$DIMTZIN
 70
     0
  9
$DIMALTZ
 70
     0
  9
$DIMALTTZ
 70
     0
  9
$DIMUPT
 70
     0
  9
$DIMDEC
 70
     4
  9
$DIMTDEC
 70
     4
  9
$DIMALTU
 70
     2
  9
$DIMALTTD
 70
     2
  9
$DIMTXSTY
  7
Standard
  9
$DIMAUNIT
 70
     0
  9
$DIMADEC
 70
     0
  9
$DIMALTRND
 40
0.0
  9
$DIMAZIN
 70
     0
  9
$DIMDSEP
 70
    46
  9
$DIMATFIT
 70
     3
  9
$DIMFRAC
 70
     0
  9
$DIMLDRBLK
  1

  9
$DIMLUNIT
 70
     2
  9
$DIMLWD
 70
    -2
  9
$DIMLWE
 70
    -2
  9
$DIMTMOVE
 70
     0
  9
$LUNITS
 70
     2
  9
$LUPREC
 70
     4
  9
$SKETCHINC
 40
0.1
  9
$FILLETRAD
 40
0.5
  9
$AUNITS
 70
     0
  9
$AUPREC
 70
     0
  9
$MENU
  1
.
  9
$ELEVATION
 40
0.0
  9
$PELEVATION
 40
0.0
  9
$THICKNESS
 40
0.0
  9
$LIMCHECK
 70
     0
  9
$CHAMFERA
 40
0.5
  9
$CHAMFERB
 40
0.5
  9
$CHAMFERC
 40
1.0
  9
$CHAMFERD
 40
0.0
  9
$SKPOLY
 70
     0
  9
$TDCREATE
 40
2458198.267067315
  9
$TDUCREATE
 40
2458198.225400648
  9
$TDUPDATE
 40
2458198.267067859
  9
$TDUUPDATE
 40
2458198.225401192
  9
$TDINDWG
 40
0.0000000116
  9
$TDUSRTIMER
 40
0.0000000116
  9
$USRTIMER
 70
     1
  9
$ANGBASE
 50
0.0
  9
$ANGDIR
 70
     0
  9
$PDMODE
 70
     0
  9
$PDSIZE
 40
0.0
  9
$PLINEWID
 40
0.0
  9
$SPLFRAME
 70
     0
  9
$SPLINETYPE
 70
     6
  9
$SPLINESEGS
 70
     8
  9
$HANDSEED
  5
2BC
  9
$SURFTAB1
 70
     6
  9
$SURFTAB2
 70
     6
  9
$SURFTYPE
 70
     6
  9
$SURFU
 70
     6
  9
$SURFV
 70
     6
  9
$UCSBASE
  2

  9
$UCSNAME
  2

  9
$UCSORG
 10
0.0
 20
0.0
 30
0.0
  9
$UCSXDIR
 10
1.0
 20
0.0
 30
0.0
  9
$UCSYDIR
 10
0.0
 20
1.0
 30
0.0
  9
$UCSORTHOREF
  2

  9
$UCSORTHOVIEW
 70
     0
  9
$UCSORGTOP
 10
0.0
 20
0.0
 30
0.0
  9
$UCSORGBOTTOM
 10
0.0
 20
0.0
 30
0.0
  9
$UCSORGLEFT
 10
0.0
 20
0.0
 30
0.0
  9
$UCSORGRIGHT
 10
0.0
 20
0.0
 30
0.0
  9
$UCSORGFRONT
 10
0.0
 20
0.0
 30
0.0
  9
$UCSORGBACK
 10
0.0
 20
0.0
 30
0.0
  9
$PUCSBASE
  2

  9
$PUCSNAME
  2

  9
$PUCSORG
 10
0.0
 20
0.0
 30
0.0
  9
$PUCSXDIR
 10
1.0
 20
0.0
 30
0.0
  9
$PUCSYDIR
 10
0.0
 20
1.0
 30
0.0
  9
$PUCSORTHOREF
  2

  9
$PUCSORTHOVIEW
 70
     0
  9
$PUCSORGTOP
 10
0.0
 20
0.0
 30
0.0
  9
$PUCSORGBOTTOM
 10
0.0
 20
0.0
 30
0.0
  9
$PUCSORGLEFT
 10
0.0
 20
0.0
 30
0.0
  9
$PUCSORGRIGHT
 10
0.0
 20
0.0
 30
0.0
  9
$PUCSORGFRONT
 10
0.0
 20
0.0
 30
0.0
  9
$PUCSORGBACK
 10
0.0
 20
0.0
 30
0.0
  9
$USERI1
 70
     0
  9
$USERI2
 70
     0
  9
$USERI3
 70
     0
  9
$USERI4
 70
     0
  9
$USERI5
 70
     0
  9
$USERR1
 40
18.1
  9
$USERR2
 40
0.0
  9
$USERR3
 40
0.0
  9
$USERR4
 40
0.0
  9
$USERR5
 40
0.0
  9
$WORLDVIEW
 70
     1
  9
$SHADEDGE
 70
     3
  9
$SHADEDIF
 70
    70
  9
$TILEMODE
 70
     1
  9
$MAXACTVP
 70
    64
  9
$PINSBASE
 10
0.0
 20
0.0
 30
0.0
  9
$PLIMCHECK
 70
     0
  9
$PEXTMIN
 10
1.00000000000000E+20
 20
1.00000000000000E+20
 30
1.00000000000000E+20
  9
$PEXTMAX
 10
-1.00000000000000E+20
 20
-1.00000000000000E+20
 30
-1.00000000000000E+20
  9
$PLIMMIN
 10
0.0
 20
0.0
  9
$PLIMMAX
 10
12.0
 20
9.0
  9
$UNITMODE
 70
     0
  9
$VISRETAIN
 70
     1
  9
$PLINEGEN
 70
     0
  9
$PSLTSCALE
 70
     1
  9
$TREEDEPTH
 70
  3020
  9
$CMLSTYLE
  2
Standard
  9
$CMLJUST
 70
     0
  9
$CMLSCALE
 40
1.0
  9
$PROXYGRAPHICS
 70
     1
  9
$MEASUREMENT
 70
     1
  9
$CELWEIGHT
370
    -1
  9
$ENDCAPS
280
     0
  9
$JOINSTYLE
280
     0
  9
$LWDISPLAY
290
     0
  9
$INSUNITS
 70
     4
  9
$HYPERLINKBASE
  1

  9
$STYLESHEET
  1

  9
$XEDIT
290
     1
  9
$CEPSNTYPE
380
     0
  9
$PSTYLEMODE
290
     1
  9
$FINGERPRINTGUID
  2
{B63FA007-A5EF-4B14-A07F-DE7BF5078451}
  9
$VERSIONGUID
  2
{FAEB1C32-E019-11D5-929B-00C0DF256EC4}
  9
$EXTNAMES
290
     1
  9
$PSVPSCALE
 40
0.0
  9
$OLESTARTUP
290
     0
  9
$SORTENTS
280
   127
  9
$INDEXCTL
280
     0
  9
$HIDETEXT
280
     1
  9
$XCLIPFRAME
290
     0
  9
$HALOGAP
280
     0
  9
$OBSCOLOR
 70
   257
  9
$OBSLTYPE
280
     0
  9
$INTERSECTIONDISPLAY
280
     0
  9
$INTERSECTIONCOLOR
 70
   257
  9
$DIMASSOC
280
     2
  9
$PROJECTNAME
  1

  0
ENDSEC
  0
SECTION
  2
CLASSES
  0
CLASS
  1
ACDBDICTIONARYWDFLT
  2
AcDbDictionaryWithDefault
  3
ObjectDBX Classes
 90
        0
 91
        4
280
     0
281
     0
  0
CLASS
  1
VISUALSTYLE
  2
AcDbVisualStyle
  3
ObjectDBX Classes
 90
     4095
 91
        4
280
     0
281
     0
  0
CLASS
  1
MATERIAL
  2
AcDbMaterial
  3
ObjectDBX Classes
 90
     1153
 91
        4
280
     0
281
     0
  0
ENDSEC
  0
SECTION
  2
TABLES
  0
TABLE
  2
VPORT
  5
8
330
0
100
AcDbSymbolTable
 70
     1
  0
VPORT
  5
29
330
8
100
AcDbSymbolTableRecord
100
AcDbViewportTableRecord
  2
*Active
 70
     0
 10
0.0
 20
0.0
 11
1.0
 21
1.0
 12
114.9999999837871
 22
834.4876971329961
 13
0.0
 23
0.0
 14
0.5
 24
0.5
 15
0.5
 25
0.5
 16
0.0
 26
0.0
 36
1.0
 17
0.0
 27
0.0
 37
0.0
 40
231.0000000000001
 41
1.60267857142857
 42
50.0
 43
0.0
 44
0.0
 50
0.0
 51
0.0
 71
     0
 72
   100
 73
     1
 74
     3
 75
     0
 76
     0
 77
     0
 78
     0
281
     0
 65
     1
110
0.0
120
0.0
130
0.0
111
1.0
121
0.0
131
0.0
112
0.0
122
1.0
132
0.0
 79
     0
146
0.0
  0
ENDTAB
  0
TABLE
  2
LTYPE
  5
5
330
0
100
AcDbSymbolTable
 70
     8
  0
LTYPE
  5
14
330
5
100
AcDbSymbolTableRecord
100
AcDbLinetypeTableRecord
  2
ByBlock
 70
     0
  3

 72
    65
 73
     0
 40
0.0
  0
LTYPE
  5
15
330
5
100
AcDbSymbolTableRecord
100
AcDbLinetypeTableRecord
  2
ByLayer
 70
     0
  3

 72
    65
 73
     0
 40
0.0
  0
LTYPE
  5
16
330
5
100
AcDbSymbolTableRecord
100
AcDbLinetypeTableRecord
  2
Continuous
 70
     0
  3
Solid line
 72
    65
 73
     0
 40
0.0
  0
LTYPE
  5
3F
330
5
100
AcDbSymbolTableRecord
100
AcDbLinetypeTableRecord
  2
DASHED
 70
     0
  3
Dashed
 72
    65
 73
     2
 40
15.0
 49
7.0
 74
     0
 49
-8.0
 74
     0
  0
LTYPE
  5
40
330
5
100
AcDbSymbolTableRecord
100
AcDbLinetypeTableRecord
  2
DOTTED
 70
     0
  3
Dotted
 72
    65
 73
     2
 40
1.0
 49
0.0
 74
     0
 49
-1.0
 74
     0
  0
LTYPE
  5
41
330
5
100
AcDbSymbolTableRecord
100
AcDbLinetypeTableRecord
  2
DOT_CENTER
 70
     0
  3
Dot_Center
 72
    65
 73
     4
 40
14.0
 49
12.0
 74
     0
 49
-1.0
 74
     0
 49
0.0
 74
     0
 49
-1.0
 74
     0
  0
LTYPE
  5
42
330
5
100
AcDbSymbolTableRecord
100
AcDbLinetypeTableRecord
  2
LONG_DASHED
 70
     0
  3
Long_Dashed
 72
    65
 73
     2
 40
15.0
 49
10.0
 74
     0
 49
-5.0
 74
     0
  0
LTYPE
  5
43
330
5
100
AcDbSymbolTableRecord
100
AcDbLinetypeTableRecord
  2
DASH_CENTER
 70
     0
  3
Dash_Center
 72
    65
 73
     4
 40
14.0
 49
11.0
 74
     0
 49
-1.0
 74
     0
 49
1.0
 74
     0
 49
-1.0
 74
     0
  0
LTYPE
  5
44
330
5
100
AcDbSymbolTableRecord
100
AcDbLinetypeTableRecord
  2
PHANTOM
 70
     0
  3
Phantom
 72
    65
 73
     6
 40
13.0
 49
10.0
 74
     0
 49
-1.0
 74
     0
 49
0.0
 74
     0
 49
-1.0
 74
     0
 49
0.0
 74
     0
 49
-1.0
 74
     0
  0
LTYPE
  5
45
330
5
100
AcDbSymbolTableRecord
100
AcDbLinetypeTableRecord
  2
CENTER_DASH_DASH
 70
     0
  3
Center_Dash_Dash
 72
    65
 73
     6
 40
14.0
 49
9.0
 74
     0
 49
-1.0
 74
     0
 49
1.0
 74
     0
 49
-1.0
 74
     0
 49
1.0
 74
     0
 49
-1.0
 74
     0
  0
ENDTAB
  0
TABLE
  2
LAYER
  5
2
330
0
100
AcDbSymbolTable
 70
     2
  0
LAYER
  5
10
330
2
100
AcDbSymbolTableRecord
100
AcDbLayerTableRecord
  2
0
 70
     0
 62
     7
  6
Continuous
370
    -3
390
F
  0
LAYER
  5
46
330
2
100
AcDbSymbolTableRecord
100
AcDbLayerTableRecord
  2
1
 70
     0
 62
     7
  6
Continuous
370
    -3
390
F
  0
ENDTAB
  0
TABLE
  2
STYLE
  5
3
330
0
100
AcDbSymbolTable
 70
     5
  0
STYLE
  5
11
330
3
100
AcDbSymbolTableRecord
100
AcDbTextStyleTableRecord
  2
Standard
 70
     0
 40
0.0
 41
1.0
 50
0.0
 71
     0
 42
0.2
  3
txt
  4

  0
STYLE
  5
BA
330
3
100
AcDbSymbolTableRecord
100
AcDbTextStyleTableRecord
  2
CONVERTER_11
 70
     0
 40
0.0
 41
0.9
 50
0.0
 71
     0
 42
0.2
  3
txt.shx
  4

  0
STYLE
  5
257
330
3
100
AcDbSymbolTableRecord
100
AcDbTextStyleTableRecord
  2
CONVERTER_12
 70
     0
 40
0.0
 41
0.81
 50
0.0
 71
     0
 42
0.2
  3
txt.shx
  4

  0
STYLE
  5
26D
330
3
100
AcDbSymbolTableRecord
100
AcDbTextStyleTableRecord
  2
CONVERTER_13
 70
     0
 40
0.0
 41
0.72
 50
0.0
 71
     0
 42
0.2
  3
txt.shx
  4

  0
STYLE
  5
270
330
3
100
AcDbSymbolTableRecord
100
AcDbTextStyleTableRecord
  2
CONVERTER_14
 70
     0
 40
0.0
 41
0.855
 50
0.0
 71
     0
 42
0.2
  3
txt.shx
  4

  0
ENDTAB
  0
TABLE
  2
VIEW
  5
6
330
0
100
AcDbSymbolTable
 70
     0
  0
ENDTAB
  0
TABLE
  2
UCS
  5
7
330
0
100
AcDbSymbolTable
 70
     0
  0
ENDTAB
  0
TABLE
  2
APPID
  5
9
330
0
100
AcDbSymbolTable
 70
     1
  0
APPID
  5
12
330
9
100
AcDbSymbolTableRecord
100
AcDbRegAppTableRecord
  2
ACAD
 70
     0
  0
ENDTAB
  0
TABLE
  2
DIMSTYLE
  5
A
330
0
100
AcDbSymbolTable
 70
     4
100
AcDbDimStyleTable
  0
DIMSTYLE
105
27
330
A
100
AcDbSymbolTableRecord
100
AcDbDimStyleTableRecord
  2
Standard
 70
     0
178
     0
340
11
  0
DIMSTYLE
105
F0
102
{ACAD_REACTORS
330
F1
102
}
330
A
100
AcDbSymbolTableRecord
100
AcDbDimStyleTableRecord
  2
ME10_DIM_10
 70
     0
 41
3.5
 42
0.5
 44
1.5
 73
     0
 74
     0
 77
     1
 78
     8
140
3.5
147
2.0
172
     1
173
     1
174
     1
175
     1
176
     2
177
     2
178
     3
340
BA
  0
DIMSTYLE
105
14E
102
{ACAD_REACTORS
330
14F
102
}
330
A
100
AcDbSymbolTableRecord
100
AcDbDimStyleTableRecord
  2
ME10_DIM_11
 70
     0
 41
3.5
 42
0.0
 44
2.0
 73
     0
 74
     0
 77
     1
 78
     8
140
3.5
147
2.0
172
     1
173
     1
174
     1
175
     1
176
     2
177
     2
271
     0
178
     3
271
     0
340
BA
  0
DIMSTYLE
105
159
102
{ACAD_REACTORS
330
15A
102
}
330
A
100
AcDbSymbolTableRecord
100
AcDbDimStyleTableRecord
  2
ME10_DIM_12
 70
     0
 41
3.5
 42
0.5
 44
1.5
 73
     0
 74
     0
 77
     1
 78
     8
140
3.5
147
2.0
172
     1
173
     1
174
     1
175
     1
176
     2
177
     2
178
     3
340
BA
  0
ENDTAB
  0
TABLE
  2
BLOCK_RECORD
  5
1
330
0
100
AcDbSymbolTable
 70
    20
  0
BLOCK_RECORD
  5
1F
330
1
100
AcDbSymbolTableRecord
100
AcDbBlockTableRecord
  2
*Model_Space
340
22
  0
BLOCK_RECORD
  5
1B
330
1
100
AcDbSymbolTableRecord
100
AcDbBlockTableRecord
  2
*Paper_Space
340
1E
  0
BLOCK_RECORD
  5
23
330
1
100
AcDbSymbolTableRecord
100
AcDbBlockTableRecord
  2
*Paper_Space0
340
26
  0
BLOCK_RECORD
  5
47
330
1
100
AcDbSymbolTableRecord
100
AcDbBlockTableRecord
  2
D_ST_16_TWIN_select__1
340
0
102
{BLKREFS
331
4B
102
}
  0
BLOCK_RECORD
  5
4A
330
1
100
AcDbSymbolTableRecord
100
AcDbBlockTableRecord
  2
AllgSicht1
340
0
102
{BLKREFS
331
7D
102
}
  0
BLOCK_RECORD
  5
4E
330
1
100
AcDbSymbolTableRecord
100
AcDbBlockTableRecord
  2
D_ST_16_TWIN_select__2
340
0
102
{BLKREFS
331
52
102
}
  0
BLOCK_RECORD
  5
51
330
1
100
AcDbSymbolTableRecord
100
AcDbBlockTableRecord
  2
Drfsicht1
340
0
102
{BLKREFS
331
7E
102
}
  0
BLOCK_RECORD
  5
55
330
1
100
AcDbSymbolTableRecord
100
AcDbBlockTableRecord
  2
D_ST_16_TWIN_select__3
340
0
102
{BLKREFS
331
59
102
}
  0
BLOCK_RECORD
  5
58
330
1
100
AcDbSymbolTableRecord
100
AcDbBlockTableRecord
  2
Rckans1
340
0
102
{BLKREFS
331
7F
102
}
  0
BLOCK_RECORD
  5
5C
330
1
100
AcDbSymbolTableRecord
100
AcDbBlockTableRecord
  2
D_ST_16_TWIN_select__4
340
0
102
{BLKREFS
331
60
102
}
  0
BLOCK_RECORD
  5
5F
330
1
100
AcDbSymbolTableRecord
100
AcDbBlockTableRecord
  2
SA_Links1
340
0
102
{BLKREFS
331
80
102
}
  0
BLOCK_RECORD
  5
63
330
1
100
AcDbSymbolTableRecord
100
AcDbBlockTableRecord
  2
D_ST_16_TWIN_select__5
340
0
102
{BLKREFS
331
67
102
}
  0
BLOCK_RECORD
  5
66
330
1
100
AcDbSymbolTableRecord
100
AcDbBlockTableRecord
  2
SA_Rechts1
340
0
102
{BLKREFS
331
81
102
}
  0
BLOCK_RECORD
  5
6A
330
1
100
AcDbSymbolTableRecord
100
AcDbBlockTableRecord
  2
D_ST_16_TWIN_select__6
340
0
102
{BLKREFS
331
6E
102
}
  0
BLOCK_RECORD
  5
6D
330
1
100
AcDbSymbolTableRecord
100
AcDbBlockTableRecord
  2
Vordans1
340
0
102
{BLKREFS
331
82
102
}
  0
BLOCK_RECORD
  5
71
330
1
100
AcDbSymbolTableRecord
100
AcDbBlockTableRecord
  2
_rahmen
340
0
102
{BLKREFS
331
78
102
}
  0
BLOCK_RECORD
  5
74
330
1
100
AcDbSymbolTableRecord
100
AcDbBlockTableRecord
  2
_punkt
340
0
102
{BLKREFS
331
79
102
}
  0
BLOCK_RECORD
  5
77
330
1
100
AcDbSymbolTableRecord
100
AcDbBlockTableRecord
  2
A4I_CS
340
0
102
{BLKREFS
331
83
102
}
  0
BLOCK_RECORD
  5
7C
330
1
100
AcDbSymbolTableRecord
100
AcDbBlockTableRecord
  2
1
340
0
102
{BLKREFS
331
86
102
}
  0
BLOCK_RECORD
  5
E5
330
1
100
AcDbSymbolTableRecord
100
AcDbBlockTableRecord
  2
*D17
340
0
  0
BLOCK_RECORD
  5
145
330
1
100
AcDbSymbolTableRecord
100
AcDbBlockTableRecord
  2
*D18
340
0
  0
BLOCK_RECORD
  5
150
330
1
100
AcDbSymbolTableRecord
100
AcDbBlockTableRecord
  2
*D19
340
0
  0
ENDTAB
  0
ENDSEC
  0
SECTION
  2
BLOCKS
  0
BLOCK
  5
20
330
1F
100
AcDbEntity
  8
0
100
AcDbBlockBegin
  2
*Model_Space
 70
     0
 10
0.0
 20
0.0
 30
0.0
  3
*Model_Space
  1

  0
ENDBLK
  5
21
330
1F
100
AcDbEntity
  8
0
100
AcDbBlockEnd
  0
BLOCK
  5
1C
330
1B
100
AcDbEntity
 67
     1
  8
0
100
AcDbBlockBegin
  2
*Paper_Space
 70
     0
 10
0.0
 20
0.0
 30
0.0
  3
*Paper_Space
  1

  0
ENDBLK
  5
1D
330
1B
100
AcDbEntity
 67
     1
  8
0
100
AcDbBlockEnd
  0
BLOCK
  5
24
330
23
100
AcDbEntity
  8
0
100
AcDbBlockBegin
  2
*Paper_Space0
 70
     0
 10
0.0
 20
0.0
 30
0.0
  3
*Paper_Space0
  1

  0
ENDBLK
  5
25
330
23
100
AcDbEntity
  8
0
100
AcDbBlockEnd
  0
BLOCK
  5
48
330
47
100
AcDbEntity
  8
0
100
AcDbBlockBegin
  2
D_ST_16_TWIN_select__1
 70
     0
 10
141.8181012264163
 20
774.8050894353025
 30
0.0
  3
D_ST_16_TWIN_select__1
  1

  0
LINE
  5
87
330
47
100
AcDbEntity
  8
0
  6
Continuous
 62
     7
100
AcDbLine
 10
236.1890372140057
 20
775.7577173794642
 30
0.0
 11
235.0890372140071
 21
774.8050894353025
 31
0.0
  0
LINE
  5
88
330
47
100
AcDbEntity
  8
0
  6
Continuous
 62
     7
100
AcDbLine
 10
234.4903793324264
 20
811.3649672312708
 30
0.0
 11
233.3903793324277
 21
810.4123392871091
 31
0.0
  0
LINE
  5
89
330
47
100
AcDbEntity
  8
0
  6
Continuous
 62
     7
100
AcDbLine
 10
236.1890372140057
 20
804.5351294199555
 30
0.0
 11
236.1890372140057
 21
793.6778816645676
 31
0.0
  0
LINE
  5
8A
330
47
100
AcDbEntity
  8
0
  6
Continuous
 62
     7
100
AcDbLine
 10
235.089037214007
 20
803.5825014757937
 30
0.0
 11
233.3903793324277
 21
810.4123392871091
 31
0.0
  0
LINE
  5
8B
330
47
100
AcDbEntity
  8
0
  6
Continuous
 62
     7
100
AcDbLine
 10
234.4903793324264
 20
811.3649672312708
 30
0.0
 11
236.1890372140057
 21
804.5351294199555
 31
0.0
  0
LINE
  5
8C
330
47
100
AcDbEntity
  8
0
  6
Continuous
 62
     7
100
AcDbLine
 10
178.4254839782519
 20
826.3948079053021
 30
0.0
 11
178.3254839782524
 21
826.3082053649241
 31
0.0
  0
LINE
  5
8D
330
47
100
AcDbEntity
  8
0
  6
Continuous
 62
     7
100
AcDbLine
 10
236.1890372140057
 20
777.7552562529089
 30
0.0
 11
236.1890372140057
 21
775.7577173794642
 31
0.0
  0
LINE
  5
8E
330
47
100
AcDbEntity
  8
0
  6
Continuous
 62
     7
100
AcDbLine
 10
235.0890372140072
 20
776.8026283087473
 30
0.0
 11
236.1890372140057
 21
777.7552562529089
 31
0.0
  0
LINE
  5
8F
330
47
100
AcDbEntity
  8
0
  6
Continuous
 62
     7
100
AcDbLine
 10
222.6275729938426
 20
775.8038875207056
 30
0.0
 11
235.0890372140071
 21
774.8050894353025
 31
0.0
  0
LINE
  5
90
330
47
100
AcDbEntity
  8
0
  6
Continuous
 62
     7
100
AcDbLine
 10
235.0890372140071
 20
774.8050894353025
 30
0.0
 11
235.0890372140072
 21
776.8026283087473
 31
0.0
  0
LINE
  5
91
330
47
100
AcDbEntity
  8
0
  6
Continuous
 62
     7
100
AcDbLine
 10
235.0890372140072
 20
792.725253720406
 30
0.0
 11
235.089037214007
 21
803.5825014757937
 31
0.0
  0
LINE
  5
92
330
47
100
AcDbEntity
  8
0
  6
Continuous
 62
     7
100
AcDbLine
 10
236.1890372140057
 20
804.5351294199555
 30
0.0
 11
235.089037214007
 21
803.5825014757937
 31
0.0
  0
LINE
  5
93
330
47
100
AcDbEntity
  8
0
  6
Continuous
 62
     7
100
AcDbLine
 10
235.0890372140072
 20
792.725253720406
 30
0.0
 11
236.1890372140057
 21
793.6778816645676
 31
0.0
  0
LINE
  5
94
330
47
100
AcDbEntity
  8
0
  6
Continuous
 62
     7
100
AcDbLine
 10
141.8181012264164
 20
830.5075014757507
 30
0.0
 11
141.8181012264163
 21
819.6563747294002
 31
0.0
  0
LINE
  5
95
330
47
100
AcDbEntity
  8
0
  6
Continuous
 62
     7
100
AcDbLine
 10
178.3254839782524
 20
826.3082053649241
 30
0.0
 11
177.7148542132871
 21
824.2055776870486
 31
0.0
  0
LINE
  5
96
330
47
100
AcDbEntity
  8
0
  6
Continuous
 62
     7
100
AcDbLine
 10
167.8421646101444
 20
827.0555776870485
 30
0.0
 11
167.942164610144
 21
827.1421802274267
 31
0.0
  0
LINE
  5
97
330
47
100
AcDbEntity
  8
0
  6
Continuous
 62
     7
100
AcDbLine
 10
178.4254839782519
 20
826.3948079053021
 30
0.0
 11
167.3315348451787
 21
829.59735516448
 31
0.0
  0
LINE
  5
98
330
47
100
AcDbEntity
  8
0
  6
Continuous
 62
     7
100
AcDbLine
 10
179.1681863129657
 20
827.0464336126491
 30
0.0
 11
168.0888325104649
 21
830.2447675628096
 31
0.0
  0
LINE
  5
99
330
47
100
AcDbEntity
  8
0
  6
Continuous
 62
     7
100
AcDbLine
 10
167.8421646101444
 20
819.3751868509919
 30
0.0
 11
167.8421646101444
 21
827.0555776870485
 31
0.0
  0
LINE
  5
9A
330
47
100
AcDbEntity
  8
0
  6
Continuous
 62
     7
100
AcDbLine
 10
168.3388325104649
 20
830.4612739137557
 30
0.0
 11
168.4161827796545
 21
830.1502696797917
 31
0.0
  0
LINE
  5
9B
330
47
100
AcDbEntity
  8
0
  6
Continuous
 62
     7
100
AcDbLine
 10
141.8181012264163
 20
806.2329809707257
 30
0.0
 11
141.8181012264164
 21
799.1315726597018
 31
0.0
  0
LINE
  5
9C
330
47
100
AcDbEntity
  8
0
  6
Continuous
 62
     7
100
AcDbLine
 10
141.8181012264164
 20
799.1315726597018
 30
0.0
 11
177.9696669601328
 21
788.6955145557087
 31
0.0
  0
LINE
  5
9D
330
47
100
AcDbEntity
  8
0
  6
Continuous
 62
     7
100
AcDbLine
 10
178.9272897785854
 20
788.438338854633
 30
0.0
 11
178.9272897785854
 21
788.4190726597008
 31
0.0
  0
LINE
  5
9E
330
47
100
AcDbEntity
  8
0
  6
Continuous
 62
     7
100
AcDbLine
 10
179.4181863129657
 20
827.2629399635953
 30
0.0
 11
179.1681863129657
 21
827.0464336126491
 31
0.0
  0
LINE
  5
9F
330
47
100
AcDbEntity
  8
0
  6
Continuous
 62
     7
100
AcDbLine
 10
167.942164610144
 20
819.46178939137
 30
0.0
 11
167.8421646101444
 21
819.3751868509919
 31
0.0
  0
LINE
  5
A0
330
47
100
AcDbEntity
  8
0
  6
Continuous
 62
     7
100
AcDbLine
 10
143.5167591080369
 20
836.3566187019068
 30
0.0
 11
144.6167591080369
 21
837.3092466460696
 31
0.0
  0
LINE
  5
A1
330
47
100
AcDbEntity
  8
0
  6
Continuous
 62
     7
100
AcDbLine
 10
167.3315348451787
 20
829.59735516448
 30
0.0
 11
167.231534845179
 21
829.5107526241019
 31
0.0
  0
LINE
  5
A2
330
47
100
AcDbEntity
  8
0
  6
Continuous
 62
     7
100
AcDbLine
 10
167.942164610144
 20
827.1421802274267
 30
0.0
 11
167.3315348451787
 21
829.59735516448
 31
0.0
  0
LINE
  5
A3
330
47
100
AcDbEntity
  8
0
  6
Continuous
 62
     7
100
AcDbLine
 10
167.8421646101444
 20
827.0555776870485
 30
0.0
 11
167.231534845179
 21
829.5107526241019
 31
0.0
  0
LINE
  5
A4
330
47
100
AcDbEntity
  8
0
  6
Continuous
 62
     7
100
AcDbLine
 10
167.231534845179
 20
829.5107526241019
 30
0.0
 11
143.5167591080369
 21
836.3566187019068
 31
0.0
  0
LINE
  5
A5
330
47
100
AcDbEntity
  8
0
  6
Continuous
 62
     7
100
AcDbLine
 10
144.6167591080369
 20
837.3092466460696
 30
0.0
 11
168.3388325104649
 21
830.4612739137557
 31
0.0
  0
LINE
  5
A6
330
47
100
AcDbEntity
  8
0
  6
Continuous
 62
     7
100
AcDbLine
 10
143.5167591080369
 20
836.3566187019068
 30
0.0
 11
141.8181012264164
 21
830.5075014757507
 31
0.0
  0
LINE
  5
A7
330
47
100
AcDbEntity
  8
0
  6
Continuous
 62
     7
100
AcDbLine
 10
178.920154203487
 20
788.412893070395
 30
0.0
 11
178.9272897785854
 21
788.4190726597008
 31
0.0
  0
LINE
  5
A8
330
47
100
AcDbEntity
  8
0
  6
Continuous
 62
     7
100
AcDbLine
 10
178.2156238582397
 20
788.6245129150446
 30
0.0
 11
178.6863277547685
 21
788.4886324043583
 31
0.0
  0
LINE
  5
A9
330
47
100
AcDbEntity
  8
0
  6
Continuous
 62
     7
100
AcDbLine
 10
178.9272897785854
 20
788.4190726597008
 30
0.0
 11
222.6275729938426
 21
775.8038875207056
 31
0.0
  0
LINE
  5
AA
330
47
100
AcDbEntity
  8
0
  6
Continuous
 62
     7
100
AcDbLine
 10
167.942164610144
 20
827.1421802274267
 30
0.0
 11
167.942164610144
 21
819.46178939137
 31
0.0
  0
LINE
  5
AB
330
47
100
AcDbEntity
  8
0
  6
Continuous
 62
     7
100
AcDbLine
 10
168.0888325104649
 20
830.2447675628096
 30
0.0
 11
168.3388325104649
 21
830.4612739137557
 31
0.0
  0
LINE
  5
AC
330
47
100
AcDbEntity
  8
0
  6
Continuous
 62
     7
100
AcDbLine
 10
177.7148542132871
 20
816.525186850992
 30
0.0
 11
167.8421646101444
 21
819.3751868509919
 31
0.0
  0
LINE
  5
AD
330
47
100
AcDbEntity
  8
0
  6
Continuous
 62
     7
100
AcDbLine
 10
177.7148542132871
 20
824.2055776870486
 30
0.0
 11
177.7148542132871
 21
816.525186850992
 31
0.0
  0
LINE
  5
AE
330
47
100
AcDbEntity
  8
0
  6
Continuous
 62
     7
100
AcDbLine
 10
167.942164610144
 20
819.46178939137
 30
0.0
 11
177.7148542132871
 21
816.6406569048294
 31
0.0
  0
LINE
  5
AF
330
47
100
AcDbEntity
  8
0
  6
Continuous
 62
     7
100
AcDbLine
 10
233.3903793324277
 20
810.4123392871091
 30
0.0
 11
178.3254839782524
 21
826.3082053649241
 31
0.0
  0
LINE
  5
B0
330
47
100
AcDbEntity
  8
0
  6
Continuous
 62
     7
100
AcDbLine
 10
179.4181863129657
 20
827.2629399635953
 30
0.0
 11
234.4903793324264
 21
811.3649672312708
 31
0.0
  0
SPLINE
  5
B1
330
47
100
AcDbEntity
  8
0
  6
Continuous
 62
     7
100
AcDbSpline
210
0.0
220
0.0
230
1.0
 70
     8
 71
     3
 72
     9
 73
     5
 74
     3
 42
0.000000001
 43
0.0000000001
 44
0.00000001
 40
0.0
 40
0.0
 40
0.0
 40
0.0
 40
0.0132135398275756
 40
0.0264273424752426
 40
0.0264273424752426
 40
0.0264273424752426
 40
0.0264273424752426
 10
177.9746618344225
 20
788.7133388546329
 30
0.0
 10
177.9734744966406
 20
788.7090973963479
 30
0.0
 10
177.9710997782024
 20
788.7006144008124
 30
0.0
 10
177.9687174465998
 20
788.6921335401803
 30
0.0
 10
177.9675262593241
 20
788.6878930703949
 30
0.0
 11
177.9746618344225
 21
788.7133388546329
 31
0.0
 11
177.9710979081943
 21
788.700615016191
 31
0.0
 11
177.9675262593241
 21
788.6878930703949
 31
0.0
  0
SPLINE
  5
B2
330
47
100
AcDbEntity
  8
0
  6
Continuous
 62
     7
100
AcDbSpline
210
0.0
220
0.0
230
1.0
 70
     8
 71
     3
 72
    13
 73
     9
 74
     7
 42
0.000000001
 43
0.0000000001
 44
0.00000001
 40
0.0
 40
0.0
 40
0.0
 40
0.0
 40
2.476218701382935
 40
5.058109507137368
 40
7.781234781588211
 40
10.65734547634838
 40
13.67615162881968
 40
16.80957916214073
 40
16.80957916214073
 40
16.80957916214073
 40
16.80957916214073
 10
236.1890372140057
 20
793.6778816645676
 30
0.0
 10
235.7247367398039
 20
792.9905594817966
 30
0.0
 10
234.7763218802019
 20
791.5865837814049
 30
0.0
 10
234.0217918891862
 20
789.0681997677823
 30
0.0
 10
233.7588908904853
 20
786.3405901628486
 30
0.0
 10
234.0478399587158
 20
783.4671353448502
 30
0.0
 10
234.8260044526218
 20
780.5410900170782
 30
0.0
 10
235.7290845705258
 20
778.6953302008685
 30
0.0
 10
236.1890372140057
 20
777.7552562529089
 30
0.0
 11
236.1890372140057
 21
793.6778816645676
 31
0.0
 11
234.9058873528992
 21
791.5600560096346
 31
0.0
 11
234.1169545309538
 21
789.1016530416911
 31
0.0
 11
233.8507692052097
 21
786.3915687908961
 31
0.0
 11
234.1169545309538
 21
783.5278023706286
 31
0.0
 11
234.9058873528993
 21
780.6139088255622
 31
0.0
 11
236.1890372140057
 21
777.7552562529089
 31
0.0
  0
SPLINE
  5
B3
330
47
100
AcDbEntity
  8
0
  6
Continuous
 62
     7
100
AcDbSpline
210
0.0
220
0.0
230
1.0
 70
     8
 71
     3
 72
    13
 73
     9
 74
     7
 42
0.000000001
 43
0.0000000001
 44
0.00000001
 40
0.0
 40
0.0
 40
0.0
 40
0.0
 40
2.47621870138292
 40
5.058109507137361
 40
7.781234781588205
 40
10.65734547634837
 40
13.67615162881968
 40
16.80957916214072
 40
16.80957916214072
 40
16.80957916214072
 40
16.80957916214072
 10
235.0890372140072
 20
792.725253720406
 30
0.0
 10
234.6247367398054
 20
792.0379315376349
 30
0.0
 10
233.6763218802033
 20
790.633955837243
 30
0.0
 10
232.9217918891878
 20
788.1155718236209
 30
0.0
 10
232.6588908904868
 20
785.3879622186869
 30
0.0
 10
232.9478399587171
 20
782.5145074006884
 30
0.0
 10
233.7260044526234
 20
779.5884620729169
 30
0.0
 10
234.6290845705273
 20
777.7427022567073
 30
0.0
 10
235.0890372140072
 20
776.8026283087473
 30
0.0
 11
235.0890372140072
 21
792.725253720406
 31
0.0
 11
233.8058873529008
 21
790.6074280654731
 31
0.0
 11
233.0169545309553
 21
788.1490250975295
 31
0.0
 11
232.7507692052112
 21
785.4389408467346
 31
0.0
 11
233.0169545309553
 21
782.575174426467
 31
0.0
 11
233.8058873529008
 21
779.6612808814007
 31
0.0
 11
235.0890372140072
 21
776.8026283087473
 31
0.0
  0
SPLINE
  5
B4
330
47
100
AcDbEntity
  8
0
  6
Continuous
 62
     7
100
AcDbSpline
210
0.0
220
0.0
230
1.0
 70
     8
 71
     3
 72
     9
 73
     5
 74
     3
 42
0.000000001
 43
0.0000000001
 44
0.00000001
 40
0.0
 40
0.0
 40
0.0
 40
0.0
 40
0.1276344834658454
 40
0.2560687298913217
 40
0.2560687298913217
 40
0.2560687298913217
 40
0.2560687298913217
 10
178.2156238582397
 20
788.6245129150446
 30
0.0
 10
178.1744846699814
 20
788.6353613756512
 30
0.0
 10
178.0919485086067
 20
788.6571262544037
 30
0.0
 10
178.0090866097997
 20
788.6776161399682
 30
0.0
 10
177.9675262593241
 20
788.6878930703949
 30
0.0
 11
178.2156238582397
 21
788.6245129150446
 31
0.0
 11
178.0921253644801
 21
788.6567415268953
 31
0.0
 11
177.9675262593241
 21
788.6878930703949
 31
0.0
  0
SPLINE
  5
B5
330
47
100
AcDbEntity
  8
0
  6
Continuous
 62
     7
100
AcDbSpline
210
0.0
220
0.0
230
1.0
 70
     8
 71
     3
 72
     9
 73
     5
 74
     3
 42
0.000000001
 43
0.0000000001
 44
0.00000001
 40
0.0
 40
0.0
 40
0.0
 40
0.0
 40
0.1288441568171048
 40
0.2568311251046455
 40
0.2568311251046455
 40
0.2568311251046455
 40
0.2568311251046455
 10
177.9746618344225
 20
788.7133388546329
 30
0.0
 10
178.0146893738217
 20
788.6977611760568
 30
0.0
 10
178.0944781600462
 20
788.6667094745148
 30
0.0
 10
178.1753319079137
 20
788.6385470974407
 30
0.0
 10
178.2156238582397
 20
788.6245129150446
 30
0.0
 11
177.9746618344225
 21
788.7133388546329
 31
0.0
 11
178.0950124767745
 21
788.6673329891127
 31
0.0
 11
178.2156238582397
 21
788.6245129150446
 31
0.0
  0
SPLINE
  5
B6
330
47
100
AcDbEntity
  8
0
  6
Continuous
 62
     7
100
AcDbSpline
210
0.0
220
0.0
230
1.0
 70
     8
 71
     3
 72
     9
 73
     5
 74
     3
 42
0.000000001
 43
0.0000000001
 44
0.00000001
 40
0.0
 40
0.0
 40
0.0
 40
0.0
 40
0.013213802647667
 40
0.0264273424753521
 40
0.0264273424753521
 40
0.0264273424753521
 40
0.0264273424753521
 10
178.920154203487
 20
788.412893070395
 30
0.0
 10
178.9213453907627
 20
788.4171335401802
 30
0.0
 10
178.9237277223652
 20
788.4256144008125
 30
0.0
 10
178.9261024408035
 20
788.4340973963482
 30
0.0
 10
178.9272897785854
 20
788.438338854633
 30
0.0
 11
178.920154203487
 21
788.412893070395
 31
0.0
 11
178.9237258523572
 21
788.425615016191
 31
0.0
 11
178.9272897785854
 21
788.438338854633
 31
0.0
  0
SPLINE
  5
B7
330
47
100
AcDbEntity
  8
0
  6
Continuous
 62
     7
100
AcDbSpline
210
0.0
220
0.0
230
1.0
 70
     8
 71
     3
 72
    13
 73
     9
 74
     7
 42
0.000000001
 43
0.0000000001
 44
0.00000001
 40
0.0
 40
0.0
 40
0.0
 40
0.0
 40
2.095683428549227
 40
4.281140375349906
 40
6.596352318274441
 40
9.054627879655834
 40
11.64445199911583
 40
14.33478302918806
 40
14.33478302918806
 40
14.33478302918806
 40
14.33478302918806
 10
141.8181012264163
 20
806.2329809707257
 30
0.0
 10
142.2490461075198
 20
806.7881923350661
 30
0.0
 10
143.1293963932938
 20
807.9223988537302
 30
0.0
 10
143.837154908317
 20
810.0433387843693
 30
0.0
 10
144.0817139848745
 20
812.3637521791044
 30
0.0
 10
143.810209653668
 20
814.8188437233225
 30
0.0
 10
143.0827353441074
 20
817.3127674964
 30
0.0
 10
142.2449615666954
 20
818.865321448294
 30
0.0
 10
141.8181012264163
 20
819.6563747294002
 30
0.0
 11
141.8181012264163
 21
806.2329809707257
 31
0.0
 11
143.0100528468561
 21
807.9566805908515
 31
0.0
 11
143.746662967821
 21
810.014258684751
 31
0.0
 11
143.9958189838274
 21
812.3160248833327
 31
0.0
 11
143.746662967821
 21
814.7616413748261
 31
0.0
 11
143.0100528468561
 21
817.2445015203525
 31
0.0
 11
141.8181012264163
 21
819.6563747294002
 31
0.0
  0
SPLINE
  5
B8
330
47
100
AcDbEntity
  8
0
  6
Continuous
 62
     7
100
AcDbSpline
210
0.0
220
0.0
230
1.0
 70
     8
 71
     3
 72
     9
 73
     5
 74
     3
 42
0.000000001
 43
0.0000000001
 44
0.00000001
 40
0.0
 40
0.0
 40
0.0
 40
0.0
 40
0.1235562474597554
 40
0.2461756677047896
 40
0.2461756677047896
 40
0.2461756677047896
 40
0.2461756677047896
 10
178.6863277547685
 20
788.4886324043583
 30
0.0
 10
178.7264764434422
 20
788.4794300108999
 30
0.0
 10
178.8064694099271
 20
788.461095017848
 30
0.0
 10
178.8871186252056
 20
788.4459049671655
 30
0.0
 10
178.9272897785854
 20
788.438338854633
 30
0.0
 11
178.6863277547685
 21
788.4886324043583
 31
0.0
 11
178.8069391362336
 21
788.4618174648715
 31
0.0
 11
178.9272897785854
 21
788.438338854633
 31
0.0
  0
SPLINE
  5
B9
330
47
100
AcDbEntity
  8
0
  6
Continuous
 62
     7
100
AcDbSpline
210
0.0
220
0.0
230
1.0
 70
     8
 71
     3
 72
     9
 73
     5
 74
     3
 42
0.000000001
 43
0.0000000001
 44
0.00000001
 40
0.0
 40
0.0
 40
0.0
 40
0.0
 40
0.1224262137282205
 40
0.2457908347645159
 40
0.2457908347645159
 40
0.2457908347645159
 40
0.2457908347645159
 10
178.920154203487
 20
788.412893070395
 30
0.0
 10
178.8814372747171
 20
788.4257933413229
 30
0.0
 10
178.803706642419
 20
788.45169274584
 30
0.0
 10
178.7255535132368
 20
788.4762878905406
 30
0.0
 10
178.6863277547685
 20
788.4886324043583
 30
0.0
 11
178.920154203487
 21
788.412893070395
 31
0.0
 11
178.803898594833
 21
788.451270293822
 31
0.0
 11
178.6863277547685
 21
788.4886324043583
 31
0.0
  0
ENDBLK
  5
49
330
47
100
AcDbEntity
  8
0
100
AcDbBlockEnd
  0
BLOCK
  5
4C
330
4A
100
AcDbEntity
  8
0
100
AcDbBlockBegin
  2
AllgSicht1
 70
     0
 10
189.0000000000188
 20
805.00000000001
 30
0.0
  3
AllgSicht1
  1

  0
INSERT
  5
4B
330
4A
100
AcDbEntity
  8
0
100
AcDbBlockReference
  2
D_ST_16_TWIN_select__1
 10
141.8181012264163
 20
774.8050894353025
 30
0.0
  0
MTEXT
  5
BB
330
4A
100
AcDbEntity
  8
1
 62
     6
100
AcDbMText
 10
189.00000000002
 20
767.2003937673462
 30
0.0
 40
5.0
 41
0.0
 71
     2
 72
     1
  1
 
  7
CONVERTER_11
 73
     1
 44
1.32052821128451
  0
ENDBLK
  5
4D
330
4A
100
AcDbEntity
  8
0
100
AcDbBlockEnd
  0
BLOCK
  5
4F
330
4E
100
AcDbEntity
  8
0
100
AcDbBlockBegin
  2
D_ST_16_TWIN_select__2
 70
     0
 10
7.29345219389923
 20
831.0107301836055
 30
0.0
  3
D_ST_16_TWIN_select__2
  1

  0
LINE
  5
BC
330
4E
100
AcDbEntity
  8
0
  6
Continuous
 62
     7
100
AcDbLine
 10
114.9934521939052
 20
833.2250013338011
 30
0.0
 11
114.9934521939052
 21
831.0250013338037
 31
0.0
  0
LINE
  5
BD
330
4E
100
AcDbEntity
  8
0
  6
Continuous
 62
     7
100
AcDbLine
 10
114.9934521939052
 20
831.0250013338037
 30
0.0
 11
113.0320110235236
 21
831.0250013338036
 31
0.0
  0
LINE
  5
BE
330
4E
100
AcDbEntity
  8
0
  6
Continuous
 62
     7
100
AcDbLine
 10
113.0320110235236
 20
833.2250013338011
 30
0.0
 11
114.9934521939052
 21
833.2250013338011
 31
0.0
  0
LINE
  5
BF
330
4E
100
AcDbEntity
  8
0
  6
Continuous
 62
     7
100
AcDbLine
 10
49.44854671226108
 20
831.2250013338011
 30
0.0
 11
49.44854671226108
 21
831.025001333802
 31
0.0
  0
LINE
  5
C0
330
4E
100
AcDbEntity
  8
0
  6
Continuous
 62
     7
100
AcDbLine
 10
49.44012009422616
 20
833.2250013338011
 30
0.0
 11
49.44012009422616
 21
832.7250013338011
 31
0.0
  0
LINE
  5
C1
330
4E
100
AcDbEntity
  8
0
  6
Continuous
 62
     7
100
AcDbLine
 10
113.0320110235236
 20
833.2250013338011
 30
0.0
 11
113.0320110235236
 21
831.0250013338036
 31
0.0
  0
LINE
  5
C2
330
4E
100
AcDbEntity
  8
0
  6
Continuous
 62
     7
100
AcDbLine
 10
49.44012009422616
 20
833.2250013338011
 30
0.0
 11
113.0320110235236
 21
833.2250013338011
 31
0.0
  0
LINE
  5
C3
330
4E
100
AcDbEntity
  8
0
  6
Continuous
 62
     7
100
AcDbLine
 10
49.32169117253589
 20
831.0250013338023
 30
0.0
 11
49.04345219390525
 21
831.0250013338022
 31
0.0
  0
LINE
  5
C4
330
4E
100
AcDbEntity
  8
0
  6
Continuous
 62
     7
100
AcDbLine
 10
49.04345219390525
 20
831.0250013338022
 30
0.0
 11
49.04345219390525
 21
831.0107301836055
 31
0.0
  0
LINE
  5
C5
330
4E
100
AcDbEntity
  8
0
  6
Continuous
 62
     7
100
AcDbLine
 10
49.44012009422616
 20
832.7250013338011
 30
0.0
 11
48.74345219390524
 21
832.7250013338011
 31
0.0
  0
LINE
  5
C6
330
4E
100
AcDbEntity
  8
0
  6
Continuous
 62
     7
100
AcDbLine
 10
37.34345219390525
 20
833.2250013338011
 30
0.0
 11
37.34345219390525
 21
832.7250013338011
 31
0.0
  0
LINE
  5
C7
330
4E
100
AcDbEntity
  8
0
  6
Continuous
 62
     7
100
AcDbLine
 10
37.34345219390525
 20
833.2250013338011
 30
0.0
 11
48.74345219390524
 21
833.2250013338011
 31
0.0
  0
LINE
  5
C8
330
4E
100
AcDbEntity
  8
0
  6
Continuous
 62
     7
100
AcDbLine
 10
48.74345219390524
 20
832.7250013338011
 30
0.0
 11
48.74345219390524
 21
833.2250013338011
 31
0.0
  0
LINE
  5
C9
330
4E
100
AcDbEntity
  8
0
  6
Continuous
 62
     7
100
AcDbLine
 10
48.74345219390524
 20
831.2250013338011
 30
0.0
 11
48.74345219390524
 21
831.025001333802
 31
0.0
  0
LINE
  5
CA
330
4E
100
AcDbEntity
  8
0
  6
Continuous
 62
     7
100
AcDbLine
 10
48.74345219390524
 20
831.2250013338011
 30
0.0
 11
37.34345219390525
 21
831.2250013338011
 31
0.0
  0
LINE
  5
CB
330
4E
100
AcDbEntity
  8
0
  6
Continuous
 62
     7
100
AcDbLine
 10
36.64678429358431
 20
832.7250013338011
 30
0.0
 11
36.64678429358431
 21
833.2250013338011
 31
0.0
  0
LINE
  5
CC
330
4E
100
AcDbEntity
  8
0
  6
Continuous
 62
     7
100
AcDbLine
 10
9.25489336432855
 20
833.2250013338011
 30
0.0
 11
36.64678429358431
 21
833.2250013338011
 31
0.0
  0
LINE
  5
CD
330
4E
100
AcDbEntity
  8
0
  6
Continuous
 62
     7
100
AcDbLine
 10
113.0320110235236
 20
831.0250013338036
 30
0.0
 11
50.14345219390525
 21
831.0250013338023
 31
0.0
  0
LINE
  5
CE
330
4E
100
AcDbEntity
  8
0
  6
Continuous
 62
     7
100
AcDbLine
 10
50.14345219390525
 20
831.0250013338023
 30
0.0
 11
49.86521321527491
 21
831.0250013338023
 31
0.0
  0
LINE
  5
CF
330
4E
100
AcDbEntity
  8
0
  6
Continuous
 62
     7
100
AcDbLine
 10
50.14345219390525
 20
831.0107301836056
 30
0.0
 11
50.14345219390525
 21
831.0250013338023
 31
0.0
  0
LINE
  5
D0
330
4E
100
AcDbEntity
  8
0
  6
Continuous
 62
     7
100
AcDbLine
 10
49.86521321527491
 20
831.0250013338023
 30
0.0
 11
49.44854671226108
 21
831.025001333802
 31
0.0
  0
LINE
  5
D1
330
4E
100
AcDbEntity
  8
0
  6
Continuous
 62
     7
100
AcDbLine
 10
37.34345219390525
 20
831.0250013338018
 30
0.0
 11
36.6383576755494
 21
831.0250013338018
 31
0.0
  0
LINE
  5
D2
330
4E
100
AcDbEntity
  8
0
  6
Continuous
 62
     7
100
AcDbLine
 10
37.34345219390525
 20
831.2250013338011
 30
0.0
 11
36.6383576755494
 21
831.2250013338011
 31
0.0
  0
LINE
  5
D3
330
4E
100
AcDbEntity
  8
0
  6
Continuous
 62
     7
100
AcDbLine
 10
36.64678429358431
 20
833.2250013338011
 30
0.0
 11
37.34345219390525
 21
833.2250013338011
 31
0.0
  0
LINE
  5
D4
330
4E
100
AcDbEntity
  8
0
  6
Continuous
 62
     7
100
AcDbLine
 10
36.6383576755494
 20
831.0250013338018
 30
0.0
 11
9.25489336432855
 21
831.0250013338011
 31
0.0
  0
LINE
  5
D5
330
4E
100
AcDbEntity
  8
0
  6
Continuous
 62
     7
100
AcDbLine
 10
7.29345219389923
 20
833.2250013338011
 30
0.0
 11
7.29345219389923
 21
831.025001333801
 31
0.0
  0
LINE
  5
D6
330
4E
100
AcDbEntity
  8
0
  6
Continuous
 62
     7
100
AcDbLine
 10
9.25489336432855
 20
831.0250013338011
 30
0.0
 11
9.25489336432855
 21
833.2250013338011
 31
0.0
  0
LINE
  5
D7
330
4E
100
AcDbEntity
  8
0
  6
Continuous
 62
     7
100
AcDbLine
 10
9.25489336432855
 20
831.0250013338011
 30
0.0
 11
7.29345219389923
 21
831.025001333801
 31
0.0
  0
LINE
  5
D8
330
4E
100
AcDbEntity
  8
0
  6
Continuous
 62
     7
100
AcDbLine
 10
36.6383576755494
 20
831.2250013338011
 30
0.0
 11
36.6383576755494
 21
831.0250013338018
 31
0.0
  0
LINE
  5
D9
330
4E
100
AcDbEntity
  8
0
  6
Continuous
 62
     7
100
AcDbLine
 10
7.29345219389923
 20
833.2250013338011
 30
0.0
 11
9.25489336432855
 21
833.2250013338011
 31
0.0
  0
LINE
  5
DA
330
4E
100
AcDbEntity
  8
0
  6
Continuous
 62
     7
100
AcDbLine
 10
49.44854671226108
 20
831.025001333802
 30
0.0
 11
49.32169117253589
 21
831.0250013338023
 31
0.0
  0
LINE
  5
DB
330
4E
100
AcDbEntity
  8
0
  6
Continuous
 62
     7
100
AcDbLine
 10
49.44854671226108
 20
831.2250013338011
 30
0.0
 11
48.74345219390524
 21
831.2250013338011
 31
0.0
  0
LINE
  5
DC
330
4E
100
AcDbEntity
  8
0
  6
Continuous
 62
     7
100
AcDbLine
 10
49.04345219390525
 20
831.0250013338022
 30
0.0
 11
48.74345219390524
 21
831.025001333802
 31
0.0
  0
LINE
  5
DD
330
4E
100
AcDbEntity
  8
0
  6
Continuous
 62
     7
100
AcDbLine
 10
48.74345219390524
 20
833.2250013338011
 30
0.0
 11
49.44012009422616
 21
833.2250013338011
 31
0.0
  0
LINE
  5
DE
330
4E
100
AcDbEntity
  8
0
  6
Continuous
 62
     7
100
AcDbLine
 10
37.34345219390525
 20
832.7250013338011
 30
0.0
 11
36.64678429358431
 21
832.7250013338011
 31
0.0
  0
LINE
  5
DF
330
4E
100
AcDbEntity
  8
0
  6
Continuous
 62
     7
100
AcDbLine
 10
48.74345219390524
 20
831.025001333802
 30
0.0
 11
37.34345219390525
 21
831.0250013338018
 31
0.0
  0
LINE
  5
E0
330
4E
100
AcDbEntity
  8
0
  6
Continuous
 62
     7
100
AcDbLine
 10
37.34345219390525
 20
831.0250013338018
 30
0.0
 11
37.34345219390525
 21
831.2250013338011
 31
0.0
  0
LINE
  5
E1
330
4E
100
AcDbEntity
  8
0
  6
Continuous
 62
     7
100
AcDbLine
 10
48.74345219390524
 20
832.7250013338011
 30
0.0
 11
37.34345219390525
 21
832.7250013338011
 31
0.0
  0
ARC
  5
E2
330
4E
100
AcDbEntity
  8
0
  6
Continuous
 62
     7
100
AcDbCircle
 10
49.59345219393737
 20
823.0070907289893
 30
0.0
 40
8.022514850065761
100
AcDbArc
 50
91.94125399628875
 51
93.93111349484828
  0
ARC
  5
E3
330
4E
100
AcDbEntity
  8
0
  6
Continuous
 62
     7
100
AcDbCircle
 10
49.59345219387285
 20
823.0070907289893
 30
0.0
 40
8.022514850065795
100
AcDbArc
 50
86.06888650514978
 51
88.05874600370706
  0
ENDBLK
  5
50
330
4E
100
AcDbEntity
  8
0
100
AcDbBlockEnd
  0
BLOCK
  5
53
330
51
100
AcDbEntity
  8
0
100
AcDbBlockBegin
  2
Drfsicht1
 70
     0
 10
61.14345052590856
 20
832.1178657824664
 30
0.0
  3
Drfsicht1
  1

  0
INSERT
  5
52
330
51
100
AcDbEntity
  8
0
100
AcDbBlockReference
  2
D_ST_16_TWIN_select__2
 10
7.29345219389923
 20
831.0107301836055
 30
0.0
  0
MTEXT
  5
E4
330
51
100
AcDbEntity
  8
1
 62
     6
100
AcDbMText
 10
61.14345052590869
 20
826.010730183453
 30
0.0
 40
5.0
 41
0.0
 71
     2
 72
     1
  1
 
  7
CONVERTER_11
 73
     1
 44
1.32052821128451
  0
DIMENSION
  5
F1
330
51
100
AcDbEntity
  8
1
100
AcDbDimension
  2
*D17
 10
-0.52773337270816
 20
833.2250013338011
 30
0.0
 11
-4.45273337270816
 21
832.55924221332
 31
0.0
 70
    33
  1
<>
 71
     5
 42
-1.0
 53
90.0
  3
ME10_DIM_10
100
AcDbAlignedDimension
 13
7.29345219389923
 23
831.025001333801
 33
0.0
 14
7.29345219389923
 24
833.2250013338011
 34
0.0
  0
ENDBLK
  5
54
330
51
100
AcDbEntity
  8
0
100
AcDbBlockEnd
  0
BLOCK
  5
56
330
55
100
AcDbEntity
  8
0
100
AcDbBlockBegin
  2
D_ST_16_TWIN_select__3
 70
     0
 10
139.9999966598545
 20
867.2250004986311
 30
0.0
  3
D_ST_16_TWIN_select__3
  1

  0
LINE
  5
F2
330
55
100
AcDbEntity
  8
0
  6
Continuous
 62
     7
100
AcDbLine
 10
139.9999966598545
 20
872.5320684310052
 30
0.0
 11
139.9999966598545
 21
870.2255092184051
 31
0.0
  0
LINE
  5
F3
330
55
100
AcDbEntity
  8
0
  6
Continuous
 62
     7
100
AcDbLine
 10
141.9614378302362
 20
910.775000498631
 30
0.0
 11
139.9999966598545
 21
903.4548023947219
 31
0.0
  0
LINE
  5
F4
330
55
100
AcDbEntity
  8
0
  6
Continuous
 62
     7
100
AcDbLine
 10
139.9999966598545
 20
903.4548023947219
 30
0.0
 11
139.9999966598545
 21
890.9179325662586
 31
0.0
  0
LINE
  5
F5
330
55
100
AcDbEntity
  8
0
  6
Continuous
 62
     7
100
AcDbLine
 10
217.6499966598545
 20
908.175000498631
 30
0.0
 11
217.6499966598545
 21
899.275000498631
 31
0.0
  0
LINE
  5
F6
330
55
100
AcDbEntity
  8
0
  6
Continuous
 62
     7
100
AcDbLine
 10
217.6499966598545
 20
899.275000498631
 30
0.0
 11
206.2499966598545
 21
899.275000498631
 31
0.0
  0
LINE
  5
F7
330
55
100
AcDbEntity
  8
0
  6
Continuous
 62
     7
100
AcDbLine
 10
206.2499966598545
 20
899.275000498631
 30
0.0
 11
206.2499966598545
 21
908.175000498631
 31
0.0
  0
LINE
  5
F8
330
55
100
AcDbEntity
  8
0
  6
Continuous
 62
     7
100
AcDbLine
 10
218.3466645601755
 20
910.775000498631
 30
0.0
 11
217.6499966598545
 21
908.175000498631
 31
0.0
  0
LINE
  5
F9
330
55
100
AcDbEntity
  8
0
  6
Continuous
 62
     7
100
AcDbLine
 10
206.2499966598545
 20
908.175000498631
 30
0.0
 11
205.5533287595336
 21
910.775000498631
 31
0.0
  0
LINE
  5
FA
330
55
100
AcDbEntity
  8
0
  6
Continuous
 62
     7
100
AcDbLine
 10
247.6999966598605
 20
903.4548023946718
 30
0.0
 11
245.7385554894312
 21
910.775000498631
 31
0.0
  0
LINE
  5
FB
330
55
100
AcDbEntity
  8
0
  6
Continuous
 62
     7
100
AcDbLine
 10
247.6999966598605
 20
890.9250004986395
 30
0.0
 11
247.6999966598605
 21
903.4548023946718
 31
0.0
  0
LINE
  5
FC
330
55
100
AcDbEntity
  8
0
  6
Continuous
 62
     7
100
AcDbLine
 10
247.6999966598605
 20
867.2250004986311
 30
0.0
 11
247.6999966598605
 21
875.4250004986214
 31
0.0
  0
LINE
  5
FD
330
55
100
AcDbEntity
  8
0
  6
Continuous
 62
     7
100
AcDbLine
 10
154.3892561038719
 20
867.2250004986311
 30
0.0
 11
247.6999966598605
 21
867.2250004986311
 31
0.0
  0
LINE
  5
FE
330
55
100
AcDbEntity
  8
0
  6
Continuous
 62
     7
100
AcDbLine
 10
139.9999966598545
 20
870.2255092184051
 30
0.0
 11
154.3892561038719
 21
867.2250004986311
 31
0.0
  0
LINE
  5
FF
330
55
100
AcDbEntity
  8
0
  6
Continuous
 62
     7
100
AcDbLine
 10
205.5533287595336
 20
910.775000498631
 30
0.0
 11
218.3466645601755
 21
910.775000498631
 31
0.0
  0
LINE
  5
100
330
55
100
AcDbEntity
  8
0
  6
Continuous
 62
     7
100
AcDbLine
 10
245.7385554894312
 20
910.775000498631
 30
0.0
 11
218.3466645601755
 21
910.775000498631
 31
0.0
  0
LINE
  5
101
330
55
100
AcDbEntity
  8
0
  6
Continuous
 62
     7
100
AcDbLine
 10
205.5533287595336
 20
910.775000498631
 30
0.0
 11
141.9614378302362
 21
910.775000498631
 31
0.0
  0
ARC
  5
102
330
55
100
AcDbEntity
  8
0
  6
Continuous
 62
     7
100
AcDbCircle
 10
258.3853838779196
 20
883.1750004986305
 30
0.0
 40
13.2
100
AcDbArc
 50
144.0470142976089
 51
215.9529857023915
  0
ARC
  5
103
330
55
100
AcDbEntity
  8
0
  6
Continuous
 62
     7
100
AcDbCircle
 10
125.6999966598546
 20
881.7250004986319
 30
0.0
 40
16.99999999999987
100
AcDbArc
 50
327.2645613118671
 51
32.73543868813326
  0
ENDBLK
  5
57
330
55
100
AcDbEntity
  8
0
100
AcDbBlockEnd
  0
BLOCK
  5
5A
330
58
100
AcDbEntity
  8
0
100
AcDbBlockBegin
  2
Rckans1
 70
     0
 10
193.8499983278512
 20
889.000000000015
 30
0.0
  3
Rckans1
  1

  0
INSERT
  5
59
330
58
100
AcDbEntity
  8
0
100
AcDbBlockReference
  2
D_ST_16_TWIN_select__3
 10
139.9999966598545
 20
867.2250004986311
 30
0.0
  0
MTEXT
  5
104
330
58
100
AcDbEntity
  8
1
 62
     6
100
AcDbMText
 10
193.8499983278523
 20
862.2250003814847
 30
0.0
 40
5.0
 41
0.0
 71
     2
 72
     1
  1
 
  7
CONVERTER_11
 73
     1
 44
1.32052821128451
  0
ENDBLK
  5
5B
330
58
100
AcDbEntity
  8
0
100
AcDbBlockEnd
  0
BLOCK
  5
5D
330
5C
100
AcDbEntity
  8
0
100
AcDbBlockBegin
  2
D_ST_16_TWIN_select__4
 70
     0
 10
127.9001433578911
 20
867.225000498646
 30
0.0
  3
D_ST_16_TWIN_select__4
  1

  0
LINE
  5
105
330
5C
100
AcDbEntity
  8
0
  6
Continuous
 62
     7
100
AcDbLine
 10
130.1001433578911
 20
903.4548023946867
 30
0.0
 11
130.1001433578913
 21
890.9250004986544
 31
0.0
  0
LINE
  5
106
330
5C
100
AcDbEntity
  8
0
  6
Continuous
 62
     7
100
AcDbLine
 10
130.1001433578913
 20
875.4250004986363
 30
0.0
 11
130.10014335789
 21
867.2472471843066
 31
0.0
  0
LINE
  5
107
330
5C
100
AcDbEntity
  8
0
  6
Continuous
 62
     7
100
AcDbLine
 10
130.1001433578913
 20
875.4250004986363
 30
0.0
 11
130.1001433578913
 21
890.9250004986544
 31
0.0
  0
LINE
  5
108
330
5C
100
AcDbEntity
  8
0
  6
Continuous
 62
     7
100
AcDbLine
 10
130.1001433578901
 20
910.7750004986459
 30
0.0
 11
130.1001433578911
 21
903.4548023946867
 31
0.0
  0
LINE
  5
109
330
5C
100
AcDbEntity
  8
0
  6
Continuous
 62
     7
100
AcDbLine
 10
127.9001433578911
 20
890.9250004986544
 30
0.0
 11
130.1001433578913
 21
890.9250004986544
 31
0.0
  0
LINE
  5
10A
330
5C
100
AcDbEntity
  8
0
  6
Continuous
 62
     7
100
AcDbLine
 10
130.10014335789
 20
867.2472471843066
 30
0.0
 11
130.10014335789
 21
867.225000498646
 31
0.0
  0
LINE
  5
10B
330
5C
100
AcDbEntity
  8
0
  6
Continuous
 62
     7
100
AcDbLine
 10
127.9001433578911
 20
875.4250004986363
 30
0.0
 11
130.1001433578913
 21
875.4250004986363
 31
0.0
  0
LINE
  5
10C
330
5C
100
AcDbEntity
  8
0
  6
Continuous
 62
     7
100
AcDbLine
 10
130.10014335789
 20
867.225000498646
 30
0.0
 11
130.1144145080867
 21
867.225000498646
 31
0.0
  0
LINE
  5
10D
330
5C
100
AcDbEntity
  8
0
  6
Continuous
 62
     7
100
AcDbLine
 10
127.9001433578911
 20
867.225000498646
 30
0.0
 11
130.10014335789
 21
867.225000498646
 31
0.0
  0
LINE
  5
10E
330
5C
100
AcDbEntity
  8
0
  6
Continuous
 62
     7
100
AcDbLine
 10
127.9001433578911
 20
903.4548023946867
 30
0.0
 11
130.1001433578911
 21
903.4548023946867
 31
0.0
  0
LINE
  5
10F
330
5C
100
AcDbEntity
  8
0
  6
Continuous
 62
     7
100
AcDbLine
 10
127.9001433578911
 20
867.225000498646
 30
0.0
 11
127.9001433578911
 21
875.4250004986363
 31
0.0
  0
LINE
  5
110
330
5C
100
AcDbEntity
  8
0
  6
Continuous
 62
     7
100
AcDbLine
 10
127.9001433578911
 20
890.9250004986544
 30
0.0
 11
127.9001433578911
 21
903.4548023946867
 31
0.0
  0
LINE
  5
111
330
5C
100
AcDbEntity
  8
0
  6
Continuous
 62
     7
100
AcDbLine
 10
127.9001433578911
 20
875.4250004986363
 30
0.0
 11
127.9001433578911
 21
890.9250004986544
 31
0.0
  0
LINE
  5
112
330
5C
100
AcDbEntity
  8
0
  6
Continuous
 62
     7
100
AcDbLine
 10
127.9001433578911
 20
903.4548023946867
 30
0.0
 11
127.9001433578911
 21
910.7750004986459
 31
0.0
  0
LINE
  5
113
330
5C
100
AcDbEntity
  8
0
  6
Continuous
 62
     7
100
AcDbLine
 10
130.1001433578901
 20
910.7750004986459
 30
0.0
 11
127.9001433578911
 21
910.7750004986459
 31
0.0
  0
ARC
  5
114
330
5C
100
AcDbEntity
  8
0
  6
Continuous
 62
     7
100
AcDbCircle
 10
138.1180539627036
 20
872.3750004986475
 30
0.0
 40
9.517391686776197
100
AcDbArc
 50
212.6004339313418
 51
212.759549668906
  0
ENDBLK
  5
5E
330
5C
100
AcDbEntity
  8
0
100
AcDbBlockEnd
  0
BLOCK
  5
61
330
5F
100
AcDbEntity
  8
0
100
AcDbBlockBegin
  2
SA_Links1
 70
     0
 10
129.0072789092258
 20
889.0000000000299
 30
0.0
  3
SA_Links1
  1

  0
INSERT
  5
60
330
5F
100
AcDbEntity
  8
0
100
AcDbBlockReference
  2
D_ST_16_TWIN_select__4
 10
127.9001433578911
 20
867.225000498646
 30
0.0
  0
MTEXT
  5
115
330
5F
100
AcDbEntity
  8
1
 62
     6
100
AcDbMText
 10
129.0072789092258
 20
862.2250003814997
 30
0.0
 40
5.0
 41
0.0
 71
     2
 72
     1
  1
 
  7
CONVERTER_11
 73
     1
 44
1.32052821128451
  0
ENDBLK
  5
62
330
5F
100
AcDbEntity
  8
0
100
AcDbBlockEnd
  0
BLOCK
  5
64
330
63
100
AcDbEntity
  8
0
100
AcDbBlockBegin
  2
D_ST_16_TWIN_select__5
 70
     0
 10
-19.81368275888011
 20
867.225000498631
 30
0.0
  3
D_ST_16_TWIN_select__5
  1

  0
LINE
  5
116
330
63
100
AcDbEntity
  8
0
  6
Continuous
 62
     7
100
AcDbLine
 10
-19.7994116086819
 20
903.4548023947218
 30
0.0
 11
-19.79941160868385
 21
910.7750004986309
 31
0.0
  0
LINE
  5
117
330
63
100
AcDbEntity
  8
0
  6
Continuous
 62
     7
100
AcDbLine
 10
-19.79941160868179
 20
870.225509218405
 30
0.0
 11
-19.79941160868148
 21
872.5320684310051
 31
0.0
  0
LINE
  5
118
330
63
100
AcDbEntity
  8
0
  6
Continuous
 62
     7
100
AcDbLine
 10
-19.7994116086834
 20
867.2250004986327
 30
0.0
 11
-19.79941160868341
 21
867.2472471842916
 31
0.0
  0
LINE
  5
119
330
63
100
AcDbEntity
  8
0
  6
Continuous
 62
     7
100
AcDbLine
 10
-19.79941160868148
 20
890.9179325662585
 30
0.0
 11
-19.79941160868148
 21
872.5320684310051
 31
0.0
  0
LINE
  5
11A
330
63
100
AcDbEntity
  8
0
  6
Continuous
 62
     7
100
AcDbLine
 10
-19.79941160868148
 20
890.9179325662585
 30
0.0
 11
-17.59941160868452
 21
890.9179325662585
 31
0.0
  0
LINE
  5
11B
330
63
100
AcDbEntity
  8
0
  6
Continuous
 62
     7
100
AcDbLine
 10
-19.79941160868148
 20
890.9179325662585
 30
0.0
 11
-19.7994116086819
 21
903.4548023947218
 31
0.0
  0
LINE
  5
11C
330
63
100
AcDbEntity
  8
0
  6
Continuous
 62
     7
100
AcDbLine
 10
-17.59941160868452
 20
903.4548023947218
 30
0.0
 11
-19.7994116086819
 21
903.4548023947218
 31
0.0
  0
LINE
  5
11D
330
63
100
AcDbEntity
  8
0
  6
Continuous
 62
     7
100
AcDbLine
 10
-19.7994116086834
 20
867.2250004986327
 30
0.0
 11
-19.81368275888011
 21
867.225000498631
 31
0.0
  0
LINE
  5
11E
330
63
100
AcDbEntity
  8
0
  6
Continuous
 62
     7
100
AcDbLine
 10
-17.59941160868452
 20
867.225000498631
 30
0.0
 11
-19.7994116086834
 21
867.2250004986327
 31
0.0
  0
LINE
  5
11F
330
63
100
AcDbEntity
  8
0
  6
Continuous
 62
     7
100
AcDbLine
 10
-19.79941160868341
 20
867.2472471842916
 30
0.0
 11
-19.79941160868179
 21
870.225509218405
 31
0.0
  0
LINE
  5
120
330
63
100
AcDbEntity
  8
0
  6
Continuous
 62
     7
100
AcDbLine
 10
-17.59941160868452
 20
870.225509218405
 30
0.0
 11
-19.79941160868179
 21
870.225509218405
 31
0.0
  0
LINE
  5
121
330
63
100
AcDbEntity
  8
0
  6
Continuous
 62
     7
100
AcDbLine
 10
-19.79941160868148
 20
872.5320684310051
 30
0.0
 11
-17.59941160868452
 21
872.5320684310051
 31
0.0
  0
LINE
  5
122
330
63
100
AcDbEntity
  8
0
  6
Continuous
 62
     7
100
AcDbLine
 10
-19.79941160868385
 20
910.7750004986309
 30
0.0
 11
-17.59941160868452
 21
910.7750004986309
 31
0.0
  0
LINE
  5
123
330
63
100
AcDbEntity
  8
0
  6
Continuous
 62
     7
100
AcDbLine
 10
-17.59941160868452
 20
910.7750004986309
 30
0.0
 11
-17.59941160868452
 21
903.4548023947218
 31
0.0
  0
LINE
  5
124
330
63
100
AcDbEntity
  8
0
  6
Continuous
 62
     7
100
AcDbLine
 10
-17.59941160868452
 20
872.5320684310051
 30
0.0
 11
-17.59941160868452
 21
870.225509218405
 31
0.0
  0
LINE
  5
125
330
63
100
AcDbEntity
  8
0
  6
Continuous
 62
     7
100
AcDbLine
 10
-17.59941160868452
 20
870.225509218405
 30
0.0
 11
-17.59941160868452
 21
867.225000498631
 31
0.0
  0
LINE
  5
126
330
63
100
AcDbEntity
  8
0
  6
Continuous
 62
     7
100
AcDbLine
 10
-17.59941160868452
 20
903.4548023947218
 30
0.0
 11
-17.59941160868452
 21
890.9179325662585
 31
0.0
  0
LINE
  5
127
330
63
100
AcDbEntity
  8
0
  6
Continuous
 62
     7
100
AcDbLine
 10
-17.59941160868452
 20
890.9179325662585
 30
0.0
 11
-17.59941160868452
 21
872.5320684310051
 31
0.0
  0
ARC
  5
128
330
63
100
AcDbEntity
  8
0
  6
Continuous
 62
     7
100
AcDbCircle
 10
-27.81732221349885
 20
872.3750004986297
 30
0.0
 40
9.517391686776199
100
AcDbArc
 50
327.2404503311143
 51
327.3995660686786
  0
ENDBLK
  5
65
330
63
100
AcDbEntity
  8
0
100
AcDbBlockEnd
  0
BLOCK
  5
68
330
66
100
AcDbEntity
  8
0
100
AcDbBlockBegin
  2
SA_Rechts1
 70
     0
 10
-18.70654716001923
 20
889.000000000015
 30
0.0
  3
SA_Rechts1
  1

  0
INSERT
  5
67
330
66
100
AcDbEntity
  8
0
100
AcDbBlockReference
  2
D_ST_16_TWIN_select__5
 10
-19.81368275888011
 20
867.225000498631
 30
0.0
  0
MTEXT
  5
129
330
66
100
AcDbEntity
  8
1
 62
     6
100
AcDbMText
 10
-18.70654716001923
 20
862.2250003814847
 30
0.0
 40
5.0
 41
0.0
 71
     2
 72
     1
  1
 
  7
CONVERTER_11
 73
     1
 44
1.32052821128451
  0
ENDBLK
  5
69
330
66
100
AcDbEntity
  8
0
100
AcDbBlockEnd
  0
BLOCK
  5
6B
330
6A
100
AcDbEntity
  8
0
100
AcDbBlockBegin
  2
D_ST_16_TWIN_select__6
 70
     0
 10
7.29345268958459
 20
867.225000498631
 30
0.0
  3
D_ST_16_TWIN_select__6
  1

  0
LINE
  5
12A
330
6A
100
AcDbEntity
  8
0
  6
Continuous
 62
     7
100
AcDbLine
 10
50.1434526895906
 20
867.225000498631
 30
0.0
 11
50.1434526895906
 21
867.2472471842916
 31
0.0
  0
LINE
  5
12B
330
6A
100
AcDbEntity
  8
0
  6
Continuous
 62
     7
100
AcDbLine
 10
100.6041932455732
 20
867.225000498631
 30
0.0
 11
114.9934526895906
 21
870.225509218405
 31
0.0
  0
LINE
  5
12C
330
6A
100
AcDbEntity
  8
0
  6
Continuous
 62
     7
100
AcDbLine
 10
7.29345268958459
 20
875.4250004986213
 30
0.0
 11
7.29345268958459
 21
867.225000498631
 31
0.0
  0
LINE
  5
12D
330
6A
100
AcDbEntity
  8
0
  6
Continuous
 62
     7
100
AcDbLine
 10
49.04345268959061
 20
867.2472471842916
 30
0.0
 11
49.04345268959061
 21
867.225000498631
 31
0.0
  0
LINE
  5
12E
330
6A
100
AcDbEntity
  8
0
  6
Continuous
 62
     7
100
AcDbLine
 10
49.32169166822125
 20
867.2250004986327
 30
0.0
 11
49.04345268959061
 21
867.225000498631
 31
0.0
  0
LINE
  5
12F
330
6A
100
AcDbEntity
  8
0
  6
Continuous
 62
     7
100
AcDbLine
 10
7.29345268958459
 20
867.225000498631
 30
0.0
 11
49.04345268959061
 21
867.225000498631
 31
0.0
  0
LINE
  5
130
330
6A
100
AcDbEntity
  8
0
  6
Continuous
 62
     7
100
AcDbLine
 10
48.7434526895906
 20
908.1435519319887
 30
0.0
 11
48.7434526895906
 21
899.275000498631
 31
0.0
  0
LINE
  5
131
330
6A
100
AcDbEntity
  8
0
  6
Continuous
 62
     7
100
AcDbLine
 10
48.7434526895906
 20
899.275000498631
 30
0.0
 11
37.34345268959061
 21
899.275000498631
 31
0.0
  0
LINE
  5
132
330
6A
100
AcDbEntity
  8
0
  6
Continuous
 62
     7
100
AcDbLine
 10
7.29345268958459
 20
903.4548023946718
 30
0.0
 11
7.29345268958459
 21
890.9250004986395
 31
0.0
  0
LINE
  5
133
330
6A
100
AcDbEntity
  8
0
  6
Continuous
 62
     7
100
AcDbLine
 10
37.34345268959061
 20
899.275000498631
 30
0.0
 11
37.34345268959061
 21
908.1435519319887
 31
0.0
  0
LINE
  5
134
330
6A
100
AcDbEntity
  8
0
  6
Continuous
 62
     7
100
AcDbLine
 10
37.34345268959061
 20
908.1435519319887
 30
0.0
 11
36.63835817123476
 21
910.7750004986309
 31
0.0
  0
LINE
  5
135
330
6A
100
AcDbEntity
  8
0
  6
Continuous
 62
     7
100
AcDbLine
 10
50.1434526895906
 20
867.225000498631
 30
0.0
 11
49.86521371096026
 21
867.225000498631
 31
0.0
  0
LINE
  5
136
330
6A
100
AcDbEntity
  8
0
  6
Continuous
 62
     7
100
AcDbLine
 10
49.32169166822125
 20
867.2250004986327
 30
0.0
 11
49.86521371096026
 21
867.225000498631
 31
0.0
  0
LINE
  5
137
330
6A
100
AcDbEntity
  8
0
  6
Continuous
 62
     7
100
AcDbLine
 10
50.1434526895906
 20
867.225000498631
 30
0.0
 11
100.6041932455732
 21
867.225000498631
 31
0.0
  0
LINE
  5
138
330
6A
100
AcDbEntity
  8
0
  6
Continuous
 62
     7
100
AcDbLine
 10
114.9934526895906
 20
890.9179325662585
 30
0.0
 11
114.9934526895906
 21
903.4548023947218
 31
0.0
  0
LINE
  5
139
330
6A
100
AcDbEntity
  8
0
  6
Continuous
 62
     7
100
AcDbLine
 10
114.9934526895906
 20
903.4548023947218
 30
0.0
 11
113.032011519209
 21
910.7750004986309
 31
0.0
  0
LINE
  5
13A
330
6A
100
AcDbEntity
  8
0
  6
Continuous
 62
     7
100
AcDbLine
 10
114.9934526895906
 20
870.225509218405
 30
0.0
 11
114.9934526895906
 21
872.5320684310051
 31
0.0
  0
LINE
  5
13B
330
6A
100
AcDbEntity
  8
0
  6
Continuous
 62
     7
100
AcDbLine
 10
49.44854720794643
 20
910.7750004986309
 30
0.0
 11
48.7434526895906
 21
908.1435519319887
 31
0.0
  0
LINE
  5
13C
330
6A
100
AcDbEntity
  8
0
  6
Continuous
 62
     7
100
AcDbLine
 10
9.2548938600139
 20
910.7750004986309
 30
0.0
 11
7.29345268958459
 21
903.4548023946718
 31
0.0
  0
LINE
  5
13D
330
6A
100
AcDbEntity
  8
0
  6
Continuous
 62
     7
100
AcDbLine
 10
49.44854720794643
 20
910.7750004986309
 30
0.0
 11
36.63835817123476
 21
910.7750004986309
 31
0.0
  0
LINE
  5
13E
330
6A
100
AcDbEntity
  8
0
  6
Continuous
 62
     7
100
AcDbLine
 10
113.032011519209
 20
910.7750004986309
 30
0.0
 11
49.44854720794643
 21
910.7750004986309
 31
0.0
  0
LINE
  5
13F
330
6A
100
AcDbEntity
  8
0
  6
Continuous
 62
     7
100
AcDbLine
 10
36.63835817123476
 20
910.7750004986309
 30
0.0
 11
9.2548938600139
 21
910.7750004986309
 31
0.0
  0
ARC
  5
140
330
6A
100
AcDbEntity
  8
0
  6
Continuous
 62
     7
100
AcDbCircle
 10
49.59345268959046
 20
872.3750004986309
 30
0.0
 40
5.157165311750019
100
AcDbArc
 50
263.8778920557649
 51
266.9793532080639
  0
ARC
  5
141
330
6A
100
AcDbEntity
  8
0
  6
Continuous
 62
     7
100
AcDbCircle
 10
-3.39193452847447
 20
883.1750004986304
 30
0.0
 40
13.20000000000003
100
AcDbArc
 50
324.0470142976084
 51
35.95298570239161
  0
ARC
  5
142
330
6A
100
AcDbEntity
  8
0
  6
Continuous
 62
     7
100
AcDbCircle
 10
49.59345268955795
 20
872.3750004986284
 30
0.0
 40
5.157165311750985
100
AcDbArc
 50
273.0206467923039
 51
276.1221079446004
  0
ARC
  5
143
330
6A
100
AcDbEntity
  8
0
  6
Continuous
 62
     7
100
AcDbCircle
 10
129.2934526895906
 20
881.7250004986319
 30
0.0
 40
16.99999999999995
100
AcDbArc
 50
147.2645613118673
 51
212.7354386881331
  0
ENDBLK
  5
6C
330
6A
100
AcDbEntity
  8
0
100
AcDbBlockEnd
  0
BLOCK
  5
6F
330
6D
100
AcDbEntity
  8
0
100
AcDbBlockBegin
  2
Vordans1
 70
     0
 10
61.14345102159392
 20
889.000000000015
 30
0.0
  3
Vordans1
  1

  0
INSERT
  5
6E
330
6D
100
AcDbEntity
  8
0
100
AcDbBlockReference
  2
D_ST_16_TWIN_select__6
 10
7.29345268958459
 20
867.225000498631
 30
0.0
  0
MTEXT
  5
144
330
6D
100
AcDbEntity
  8
1
 62
     6
100
AcDbMText
 10
61.14345102159405
 20
862.2250003814847
 30
0.0
 40
5.0
 41
0.0
 71
     2
 72
     1
  1
 
  7
CONVERTER_11
 73
     1
 44
1.32052821128451
  0
DIMENSION
  5
14F
330
6D
100
AcDbEntity
  8
1
100
AcDbDimension
  2
*D18
 10
114.9934526895906
 20
852.7988280312262
 30
0.0
 11
63.20034143072222
 21
856.5488280312262
 31
0.0
 70
    32
  1
<>
 71
     5
 42
-1.0
 53
0.00013888888889
  3
ME10_DIM_11
100
AcDbAlignedDimension
 13
7.29345268958459
 23
867.225000498631
 33
0.0
 14
114.9934526895906
 24
870.225509218405
 34
0.0
100
AcDbRotatedDimension
  0
DIMENSION
  5
15A
330
6D
100
AcDbEntity
  8
1
100
AcDbDimension
  2
*D19
 10
-0.79352249536105
 20
910.7750004986309
 30
0.0
 11
-4.71852249536105
 21
888.909601486993
 31
0.0
 70
    32
  1
<>
 71
     5
 42
-1.0
 53
90.0
  3
ME10_DIM_12
100
AcDbAlignedDimension
 13
7.29345268958459
 23
867.225000498631
 33
0.0
 14
9.2548938600139
 24
910.7750004986309
 34
0.0
 50
90.0
100
AcDbRotatedDimension
  0
ENDBLK
  5
70
330
6D
100
AcDbEntity
  8
0
100
AcDbBlockEnd
  0
BLOCK
  5
72
330
71
100
AcDbEntity
  8
0
100
AcDbBlockBegin
  2
_rahmen
 70
     0
 10
258.4999999837871
 20
729.487697132996
 30
0.0
  3
_rahmen
  1

  0
LINE
  5
15B
330
71
100
AcDbEntity
  8
1
  6
Continuous
 62
     6
100
AcDbLine
 10
128.9551954570371
 20
759.9876971329961
 30
0.0
 11
258.4999999837888
 21
759.9876971329961
 31
0.0
  0
LINE
  5
15C
330
71
100
AcDbEntity
  8
1
  6
Continuous
 62
     7
100
AcDbLine
 10
147.1551954570371
 20
738.7376971329961
 30
0.0
 11
165.355195457037
 21
738.7376971329961
 31
0.0
  0
LINE
  5
15D
330
71
100
AcDbEntity
  8
1
  6
Continuous
 62
     6
100
AcDbLine
 10
147.1551954570371
 20
734.4876971329961
 30
0.0
 11
128.9551954570371
 21
734.487697132996
 31
0.0
  0
LINE
  5
15E
330
71
100
AcDbEntity
  8
1
  6
Continuous
 62
     7
100
AcDbLine
 10
147.1551954570371
 20
738.7376971329961
 30
0.0
 11
147.1551954570371
 21
734.4876971329961
 31
0.0
  0
LINE
  5
15F
330
71
100
AcDbEntity
  8
1
  6
Continuous
 62
     7
100
AcDbLine
 10
165.355195457037
 20
738.7376971329961
 30
0.0
 11
165.355195457037
 21
734.487697132996
 31
0.0
  0
LINE
  5
160
330
71
100
AcDbEntity
  8
1
  6
Continuous
 62
     7
100
AcDbLine
 10
128.9551954570371
 20
738.737697132996
 30
0.0
 11
128.9551954570371
 21
734.487697132996
 31
0.0
  0
LINE
  5
161
330
71
100
AcDbEntity
  8
1
  6
Continuous
 62
     7
100
AcDbLine
 10
128.9551954570371
 20
738.737697132996
 30
0.0
 11
147.1551954570371
 21
738.7376971329961
 31
0.0
  0
LINE
  5
162
330
71
100
AcDbEntity
  8
1
  6
Continuous
 62
     2
100
AcDbLine
 10
138.1918503435997
 20
758.112697132996
 30
0.0
 11
138.1918503435997
 21
753.112697132996
 31
0.0
  0
LINE
  5
163
330
71
100
AcDbEntity
  8
1
  6
Continuous
 62
     2
100
AcDbLine
 10
138.1918503435997
 20
753.112697132996
 30
0.0
 11
133.1918503435997
 21
754.362697132996
 31
0.0
  0
LINE
  5
164
330
71
100
AcDbEntity
  8
1
  6
Continuous
 62
     2
100
AcDbLine
 10
133.1918503435997
 20
754.362697132996
 30
0.0
 11
133.1918503435997
 21
756.862697132996
 31
0.0
  0
LINE
  5
165
330
71
100
AcDbEntity
  8
1
  6
Continuous
 62
     2
100
AcDbLine
 10
133.1918503435997
 20
756.862697132996
 30
0.0
 11
138.1918503435997
 21
758.112697132996
 31
0.0
  0
LINE
  5
166
330
71
100
AcDbEntity
  8
1
  6
Continuous
 62
     6
100
AcDbLine
 10
6.49999998378888
 20
734.4876971329961
 30
0.0
 11
-28.500000016211
 21
734.4876971329961
 31
0.0
  0
LINE
  5
167
330
71
100
AcDbEntity
  8
1
  6
Continuous
 62
     6
100
AcDbLine
 10
258.4999999837888
 20
751.4876971329961
 30
0.0
 11
258.4999999837884
 21
742.9876971329961
 31
0.0
  0
LINE
  5
168
330
71
100
AcDbEntity
  8
1
  6
Continuous
 62
     6
100
AcDbLine
 10
165.355195457037
 20
734.487697132996
 30
0.0
 11
164.9999999837871
 21
734.4876971329961
 31
0.0
  0
LINE
  5
169
330
71
100
AcDbEntity
  8
1
  6
Continuous
 62
     6
100
AcDbLine
 10
12.69999998378688
 20
734.487697132996
 30
0.0
 11
6.49999998378888
 21
734.4876971329961
 31
0.0
  0
LINE
  5
16A
330
71
100
AcDbEntity
  8
1
  6
Continuous
 62
     7
100
AcDbLine
 10
165.355195457037
 20
751.4876971329961
 30
0.0
 11
165.355195457037
 21
738.7376971329961
 31
0.0
  0
LINE
  5
16B
330
71
100
AcDbEntity
  8
1
  6
Continuous
 62
     7
100
AcDbLine
 10
128.9551954570371
 20
751.4876971329961
 30
0.0
 11
128.9551954570371
 21
738.737697132996
 31
0.0
  0
LINE
  5
16C
330
71
100
AcDbEntity
  8
1
  6
Continuous
 62
     6
100
AcDbLine
 10
114.9999999837871
 20
734.4876971329961
 30
0.0
 11
64.99999998378689
 21
734.4876971329961
 31
0.0
  0
LINE
  5
16D
330
71
100
AcDbEntity
  8
1
  6
Continuous
 62
     6
100
AcDbLine
 10
12.69999998378688
 20
734.487697132996
 30
0.0
 11
14.99999998378712
 21
734.4876971329961
 31
0.0
  0
LINE
  5
16E
330
71
100
AcDbEntity
  8
1
  6
Continuous
 62
     6
100
AcDbLine
 10
165.355195457037
 20
734.487697132996
 30
0.0
 11
214.9999999837871
 21
734.4876971329961
 31
0.0
  0
LINE
  5
16F
330
71
100
AcDbEntity
  8
1
  6
Continuous
 62
     6
100
AcDbLine
 10
258.4999999837871
 20
734.4876971329961
 30
0.0
 11
258.4999999837884
 21
742.9876971329961
 31
0.0
  0
LINE
  5
170
330
71
100
AcDbEntity
  8
1
  6
Continuous
 62
     2
100
AcDbLine
 10
-33.50000001621197
 20
734.4876971329961
 30
0.0
 11
-33.50000001621197
 21
729.487697132996
 31
0.0
  0
LINE
  5
171
330
71
100
AcDbEntity
  8
1
  6
Continuous
 62
     2
100
AcDbLine
 10
-28.500000016211
 20
734.4876971329961
 30
0.0
 11
-33.50000001621197
 21
734.4876971329961
 31
0.0
  0
LINE
  5
172
330
71
100
AcDbEntity
  8
1
  6
Continuous
 62
     2
100
AcDbLine
 10
-28.500000016211
 20
729.487697132996
 30
0.0
 11
14.99999998378712
 21
729.487697132996
 31
0.0
  0
LINE
  5
173
330
71
100
AcDbEntity
  8
1
  6
Continuous
 62
     2
100
AcDbLine
 10
-28.500000016211
 20
734.4876971329961
 30
0.0
 11
-28.500000016211
 21
729.487697132996
 31
0.0
  0
LINE
  5
174
330
71
100
AcDbEntity
  8
1
  6
Continuous
 62
     2
100
AcDbLine
 10
214.9999999837871
 20
729.487697132996
 30
0.0
 11
164.9999999837871
 21
729.487697132996
 31
0.0
  0
LINE
  5
175
330
71
100
AcDbEntity
  8
1
  6
Continuous
 62
     2
100
AcDbLine
 10
214.9999999837871
 20
729.487697132996
 30
0.0
 11
214.9999999837871
 21
734.4876971329961
 31
0.0
  0
LINE
  5
176
330
71
100
AcDbEntity
  8
1
  6
Continuous
 62
     2
100
AcDbLine
 10
164.9999999837871
 20
729.487697132996
 30
0.0
 11
164.9999999837871
 21
734.4876971329961
 31
0.0
  0
LINE
  5
177
330
71
100
AcDbEntity
  8
1
  6
Continuous
 62
     2
100
AcDbLine
 10
114.9999999837871
 20
729.487697132996
 30
0.0
 11
164.9999999837871
 21
729.487697132996
 31
0.0
  0
LINE
  5
178
330
71
100
AcDbEntity
  8
1
  6
Continuous
 62
     2
100
AcDbLine
 10
114.9999999837871
 20
729.487697132996
 30
0.0
 11
114.9999999837871
 21
734.4876971329961
 31
0.0
  0
LINE
  5
179
330
71
100
AcDbEntity
  8
1
  6
Continuous
 62
     2
100
AcDbLine
 10
64.99999998378689
 20
729.487697132996
 30
0.0
 11
114.9999999837871
 21
729.487697132996
 31
0.0
  0
LINE
  5
17A
330
71
100
AcDbEntity
  8
1
  6
Continuous
 62
     2
100
AcDbLine
 10
64.99999998378689
 20
729.487697132996
 30
0.0
 11
64.99999998378689
 21
734.4876971329961
 31
0.0
  0
LINE
  5
17B
330
71
100
AcDbEntity
  8
1
  6
Continuous
 62
     2
100
AcDbLine
 10
14.99999998378712
 20
729.487697132996
 30
0.0
 11
64.99999998378689
 21
729.487697132996
 31
0.0
  0
LINE
  5
17C
330
71
100
AcDbEntity
  8
1
  6
Continuous
 62
     2
100
AcDbLine
 10
14.99999998378712
 20
729.487697132996
 30
0.0
 11
14.99999998378712
 21
734.4876971329961
 31
0.0
  0
LINE
  5
17D
330
71
100
AcDbEntity
  8
1
  6
Continuous
 62
     6
100
AcDbLine
 10
-28.50000001621118
 20
784.4876971329962
 30
0.0
 11
-28.500000016211
 21
734.4876971329961
 31
0.0
  0
LINE
  5
17E
330
71
100
AcDbEntity
  8
1
  6
Continuous
 62
     2
100
AcDbLine
 10
-33.50000001621197
 20
784.4876971329962
 30
0.0
 11
-33.50000001621197
 21
734.4876971329961
 31
0.0
  0
LINE
  5
17F
330
71
100
AcDbEntity
  8
1
  6
Continuous
 62
     2
100
AcDbLine
 10
-33.50000001621197
 20
784.4876971329962
 30
0.0
 11
-28.50000001621118
 21
784.4876971329962
 31
0.0
  0
LINE
  5
180
330
71
100
AcDbEntity
  8
1
  6
Continuous
 62
     6
100
AcDbLine
 10
-28.5000000162114
 20
834.487697132996
 30
0.0
 11
-28.50000001621118
 21
784.4876971329962
 31
0.0
  0
LINE
  5
181
330
71
100
AcDbEntity
  8
1
  6
Continuous
 62
     2
100
AcDbLine
 10
-33.50000001621197
 20
834.487697132996
 30
0.0
 11
-33.50000001621197
 21
784.4876971329962
 31
0.0
  0
LINE
  5
182
330
71
100
AcDbEntity
  8
1
  6
Continuous
 62
     2
100
AcDbLine
 10
-33.50000001621197
 20
834.487697132996
 30
0.0
 11
-28.5000000162114
 21
834.487697132996
 31
0.0
  0
LINE
  5
183
330
71
100
AcDbEntity
  8
1
  6
Continuous
 62
     6
100
AcDbLine
 10
-28.50000001621191
 20
884.4876971329961
 30
0.0
 11
-28.5000000162114
 21
834.487697132996
 31
0.0
  0
LINE
  5
184
330
71
100
AcDbEntity
  8
1
  6
Continuous
 62
     2
100
AcDbLine
 10
-33.50000001621197
 20
884.4876971329961
 30
0.0
 11
-33.50000001621197
 21
834.487697132996
 31
0.0
  0
LINE
  5
185
330
71
100
AcDbEntity
  8
1
  6
Continuous
 62
     2
100
AcDbLine
 10
-33.50000001621197
 20
884.4876971329961
 30
0.0
 11
-28.50000001621191
 21
884.4876971329961
 31
0.0
  0
LINE
  5
186
330
71
100
AcDbEntity
  8
1
  6
Continuous
 62
     6
100
AcDbLine
 10
-28.50000001621197
 20
919.4876971329961
 30
0.0
 11
-28.50000001621191
 21
884.4876971329961
 31
0.0
  0
LINE
  5
187
330
71
100
AcDbEntity
  8
1
  6
Continuous
 62
     2
100
AcDbLine
 10
-33.50000001621197
 20
939.4876971329961
 30
0.0
 11
-33.50000001621197
 21
884.4876971329961
 31
0.0
  0
LINE
  5
188
330
71
100
AcDbEntity
  8
1
  6
Continuous
 62
     2
100
AcDbLine
 10
-33.50000001621197
 20
729.487697132996
 30
0.0
 11
-28.500000016211
 21
729.487697132996
 31
0.0
  0
LINE
  5
189
330
71
100
AcDbEntity
  8
1
  6
Continuous
 62
     2
100
AcDbLine
 10
114.9999999837871
 20
939.4876971329961
 30
0.0
 11
114.9999999837871
 21
930.2790052882948
 31
0.0
  0
LINE
  5
18A
330
71
100
AcDbEntity
  8
1
  6
Continuous
 62
     2
100
AcDbLine
 10
114.9999999837871
 20
939.4876971329961
 30
0.0
 11
-33.50000001621197
 21
939.4876971329961
 31
0.0
  0
LINE
  5
18B
330
71
100
AcDbEntity
  8
1
  6
Continuous
 62
     2
100
AcDbLine
 10
263.4999999837861
 20
734.4876971329961
 30
0.0
 11
263.4999999837861
 21
784.4876971329962
 31
0.0
  0
LINE
  5
18C
330
71
100
AcDbEntity
  8
1
  6
Continuous
 62
     2
100
AcDbLine
 10
263.4999999837861
 20
884.4876971329961
 30
0.0
 11
263.4999999837861
 21
939.4876971329961
 31
0.0
  0
LINE
  5
18D
330
71
100
AcDbEntity
  8
1
  6
Continuous
 62
     6
100
AcDbLine
 10
258.4999999837863
 20
884.4876971329961
 30
0.0
 11
258.4999999837861
 21
919.4876971329961
 31
0.0
  0
LINE
  5
18E
330
71
100
AcDbEntity
  8
1
  6
Continuous
 62
     2
100
AcDbLine
 10
258.4999999837863
 20
884.4876971329961
 30
0.0
 11
263.4999999837861
 21
884.4876971329961
 31
0.0
  0
LINE
  5
18F
330
71
100
AcDbEntity
  8
1
  6
Continuous
 62
     2
100
AcDbLine
 10
263.4999999837861
 20
834.487697132996
 30
0.0
 11
263.4999999837861
 21
884.4876971329961
 31
0.0
  0
LINE
  5
190
330
71
100
AcDbEntity
  8
1
  6
Continuous
 62
     6
100
AcDbLine
 10
258.4999999837875
 20
834.487697132996
 30
0.0
 11
258.4999999837863
 21
884.4876971329961
 31
0.0
  0
LINE
  5
191
330
71
100
AcDbEntity
  8
1
  6
Continuous
 62
     2
100
AcDbLine
 10
258.4999999837875
 20
834.487697132996
 30
0.0
 11
263.4999999837861
 21
834.487697132996
 31
0.0
  0
LINE
  5
192
330
71
100
AcDbEntity
  8
1
  6
Continuous
 62
     2
100
AcDbLine
 10
263.4999999837861
 20
784.4876971329962
 30
0.0
 11
263.4999999837861
 21
834.487697132996
 31
0.0
  0
LINE
  5
193
330
71
100
AcDbEntity
  8
1
  6
Continuous
 62
     6
100
AcDbLine
 10
258.499999983788
 20
784.4876971329962
 30
0.0
 11
258.4999999837875
 21
834.487697132996
 31
0.0
  0
LINE
  5
194
330
71
100
AcDbEntity
  8
1
  6
Continuous
 62
     2
100
AcDbLine
 10
258.499999983788
 20
784.4876971329962
 30
0.0
 11
263.4999999837861
 21
784.4876971329962
 31
0.0
  0
LINE
  5
195
330
71
100
AcDbEntity
  8
1
  6
Continuous
 62
     6
100
AcDbLine
 10
258.4999999837861
 20
919.4876971329961
 30
0.0
 11
-28.50000001621197
 21
919.4876971329961
 31
0.0
  0
LINE
  5
196
330
71
100
AcDbEntity
  8
1
  6
Continuous
 62
     2
100
AcDbLine
 10
263.4999999837861
 20
939.4876971329961
 30
0.0
 11
114.9999999837871
 21
939.4876971329961
 31
0.0
  0
LINE
  5
197
330
71
100
AcDbEntity
  8
1
  6
Continuous
 62
     6
100
AcDbLine
 10
258.4999999837888
 20
751.4876971329961
 30
0.0
 11
258.499999983788
 21
784.4876971329962
 31
0.0
  0
LINE
  5
198
330
71
100
AcDbEntity
  8
1
  6
Continuous
 62
     2
100
AcDbLine
 10
258.4999999837871
 20
729.487697132996
 30
0.0
 11
214.9999999837871
 21
729.487697132996
 31
0.0
  0
LINE
  5
199
330
71
100
AcDbEntity
  8
1
  6
Continuous
 62
     2
100
AcDbLine
 10
263.4999999837861
 20
729.487697132996
 30
0.0
 11
258.4999999837871
 21
729.487697132996
 31
0.0
  0
LINE
  5
19A
330
71
100
AcDbEntity
  8
1
  6
Continuous
 62
     2
100
AcDbLine
 10
263.4999999837861
 20
729.487697132996
 30
0.0
 11
263.4999999837861
 21
734.4876971329961
 31
0.0
  0
LINE
  5
19B
330
71
100
AcDbEntity
  8
1
  6
Continuous
 62
     6
100
AcDbLine
 10
128.9551954570371
 20
751.4876971329961
 30
0.0
 11
165.355195457037
 21
751.4876971329961
 31
0.0
  0
LINE
  5
19C
330
71
100
AcDbEntity
  8
1
  6
Continuous
 62
     2
100
AcDbLine
 10
258.4999999837871
 20
734.4876971329961
 30
0.0
 11
258.4999999837871
 21
729.487697132996
 31
0.0
  0
LINE
  5
19D
330
71
100
AcDbEntity
  8
1
  6
Continuous
 62
     2
100
AcDbLine
 10
258.4999999837871
 20
734.4876971329961
 30
0.0
 11
263.4999999837861
 21
734.4876971329961
 31
0.0
  0
LINE
  5
19E
330
71
100
AcDbEntity
  8
1
  6
Continuous
 62
     6
100
AcDbLine
 10
164.9999999837871
 20
734.4876971329961
 30
0.0
 11
147.1551954570371
 21
734.4876971329961
 31
0.0
  0
LINE
  5
19F
330
71
100
AcDbEntity
  8
1
  6
Continuous
 62
     6
100
AcDbLine
 10
214.9999999837871
 20
734.4876971329961
 30
0.0
 11
258.4999999837871
 21
734.4876971329961
 31
0.0
  0
LINE
  5
1A0
330
71
100
AcDbEntity
  8
1
  6
Continuous
 62
     6
100
AcDbLine
 10
64.99999998378689
 20
734.4876971329961
 30
0.0
 11
59.95519545703712
 21
734.4876971329961
 31
0.0
  0
LINE
  5
1A1
330
71
100
AcDbEntity
  8
1
  6
Continuous
 62
     6
100
AcDbLine
 10
114.9999999837871
 20
734.4876971329961
 30
0.0
 11
128.9551954570371
 21
734.487697132996
 31
0.0
  0
LINE
  5
1A2
102
{ACAD_REACTORS
330
28C
330
28D
102
}
330
71
100
AcDbEntity
  8
0
  6
Continuous
 62
     2
100
AcDbLine
 10
136.4698213991839
 20
746.5602118892082
 30
0.0
 11
136.4698213991839
 21
747.165747177715
 31
0.0
  0
LINE
  5
1A3
102
{ACAD_REACTORS
330
28C
330
28D
102
}
330
71
100
AcDbEntity
  8
0
  6
Continuous
 62
     2
100
AcDbLine
 10
136.4698213991839
 20
743.760077282577
 30
0.0
 11
136.4698213991839
 21
744.341928689272
 31
0.0
  0
LINE
  5
1A4
102
{ACAD_REACTORS
330
28E
330
28F
102
}
330
71
100
AcDbEntity
  8
0
  6
Continuous
 62
     2
100
AcDbLine
 10
159.0993078346631
 20
744.0497413507
 30
0.0
 11
159.0993078346631
 21
741.7811971330125
 31
0.0
  0
LINE
  5
1A5
102
{ACAD_REACTORS
330
28E
330
28F
102
}
330
71
100
AcDbEntity
  8
0
  6
Continuous
 62
     2
100
AcDbLine
 10
157.7182540556755
 20
744.835006656823
 30
0.0
 11
161.1031995743042
 21
744.8350066568235
 31
0.0
  0
LINE
  5
1A6
102
{ACAD_REACTORS
330
28E
330
28F
102
}
330
71
100
AcDbEntity
  8
0
  6
Continuous
 62
     2
100
AcDbLine
 10
161.1031995743042
 20
744.0497413507
 30
0.0
 11
161.1031995743042
 21
744.8350066568235
 31
0.0
  0
LINE
  5
1A7
102
{ACAD_REACTORS
330
28E
330
28F
102
}
330
71
100
AcDbEntity
  8
0
  6
Continuous
 62
     2
100
AcDbLine
 10
160.2921005368308
 20
744.0497413507
 30
0.0
 11
161.1031995743042
 21
744.0497413507
 31
0.0
  0
LINE
  5
1A8
102
{ACAD_REACTORS
330
28E
330
28F
102
}
330
71
100
AcDbEntity
  8
0
  6
Continuous
 62
     2
100
AcDbLine
 10
160.2921005368308
 20
741.7811971330125
 30
0.0
 11
160.2921005368308
 21
744.0497413507
 31
0.0
  0
LINE
  5
1A9
102
{ACAD_REACTORS
330
28E
330
28F
102
}
330
71
100
AcDbEntity
  8
0
  6
Continuous
 62
     2
100
AcDbLine
 10
159.0993078346631
 20
741.7811971330125
 30
0.0
 11
160.2921005368308
 21
741.7811971330125
 31
0.0
  0
LINE
  5
1AA
102
{ACAD_REACTORS
330
284
330
285
102
}
330
71
100
AcDbEntity
  8
0
  6
Continuous
 62
     2
100
AcDbLine
 10
158.4027168965986
 20
748.1941971329979
 30
0.0
 11
156.9999926788493
 21
748.1941971329979
 31
0.0
  0
LINE
  5
1AB
102
{ACAD_REACTORS
330
284
330
285
102
}
330
71
100
AcDbEntity
  8
0
  6
Continuous
 62
     2
100
AcDbLine
 10
158.4027168965986
 20
748.1941971329979
 30
0.0
 11
159.0038844184904
 21
747.5143738114424
 31
0.0
  0
LINE
  5
1AC
102
{ACAD_REACTORS
330
284
330
285
102
}
330
71
100
AcDbEntity
  8
0
  6
Continuous
 62
     2
100
AcDbLine
 10
159.0038844184904
 20
747.5143738114424
 30
0.0
 11
159.6050519403832
 21
748.1941971329979
 31
0.0
  0
LINE
  5
1AD
102
{ACAD_REACTORS
330
284
330
285
102
}
330
71
100
AcDbEntity
  8
0
  6
Continuous
 62
     2
100
AcDbLine
 10
159.7052465273639
 20
746.7212466029617
 30
0.0
 11
161.0077761581304
 21
748.1941971329979
 31
0.0
  0
LINE
  5
1AE
102
{ACAD_REACTORS
330
284
330
285
102
}
330
71
100
AcDbEntity
  8
0
  6
Continuous
 62
     2
100
AcDbLine
 10
159.7052465273639
 20
746.7212466029617
 30
0.0
 11
161.1031995743042
 21
745.1403876091867
 31
0.0
  0
LINE
  5
1AF
102
{ACAD_REACTORS
330
284
330
285
102
}
330
71
100
AcDbEntity
  8
0
  6
Continuous
 62
     2
100
AcDbLine
 10
159.7004753565559
 20
745.1403876091867
 30
0.0
 11
161.1031995743042
 21
745.1403876091867
 31
0.0
  0
LINE
  5
1B0
102
{ACAD_REACTORS
330
284
330
285
102
}
330
71
100
AcDbEntity
  8
0
  6
Continuous
 62
     2
100
AcDbLine
 10
159.0038844184904
 20
745.9281193944804
 30
0.0
 11
159.7004753565559
 21
745.1403876091867
 31
0.0
  0
LINE
  5
1B1
102
{ACAD_REACTORS
330
282
330
283
102
}
330
71
100
AcDbEntity
  8
0
  6
Continuous
 62
     2
100
AcDbLine
 10
155.5447855822067
 20
748.1941971329979
 30
0.0
 11
156.7852899924596
 21
748.1941971329979
 31
0.0
  0
LINE
  5
1B2
102
{ACAD_REACTORS
330
282
330
283
102
}
330
71
100
AcDbEntity
  8
0
  6
Continuous
 62
     2
100
AcDbLine
 10
156.7852899924596
 20
748.1941971329979
 30
0.0
 11
156.7852899924596
 21
745.1403876091867
 31
0.0
  0
LINE
  5
1B3
102
{ACAD_REACTORS
330
282
330
283
102
}
330
71
100
AcDbEntity
  8
0
  6
Continuous
 62
     2
100
AcDbLine
 10
155.5447855822067
 20
745.1403876091867
 30
0.0
 11
155.5447855822067
 21
748.1941971329979
 31
0.0
  0
LINE
  5
1B4
102
{ACAD_REACTORS
330
280
330
281
102
}
330
71
100
AcDbEntity
  8
0
  6
Continuous
 62
     2
100
AcDbLine
 10
154.0764754996691
 20
743.0027209425369
 30
0.0
 11
154.3766407368615
 21
743.7705359085236
 31
0.0
  0
LINE
  5
1B5
102
{ACAD_REACTORS
330
280
330
281
102
}
330
71
100
AcDbEntity
  8
0
  6
Continuous
 62
     2
100
AcDbLine
 10
153.5989398950483
 20
741.7811971330125
 30
0.0
 11
153.8104199485241
 21
742.3221576772303
 31
0.0
  0
LINE
  5
1B6
102
{ACAD_REACTORS
330
280
330
281
102
}
330
71
100
AcDbEntity
  8
0
  6
Continuous
 62
     2
100
AcDbLine
 10
153.7563885317346
 20
744.8350066568235
 30
0.0
 11
152.3584354847953
 21
741.7811971330125
 31
0.0
  0
LINE
  5
1B7
102
{ACAD_REACTORS
330
280
330
281
102
}
330
71
100
AcDbEntity
  8
0
  6
Continuous
 62
     2
100
AcDbLine
 10
156.3948459889276
 20
741.7811971330125
 30
0.0
 11
155.1543415786737
 21
741.7811971330125
 31
0.0
  0
LINE
  5
1B8
102
{ACAD_REACTORS
330
280
330
281
102
}
330
71
100
AcDbEntity
  8
0
  6
Continuous
 62
     2
100
AcDbLine
 10
153.8104199485241
 20
742.3221576772303
 30
0.0
 11
154.9428615251979
 21
742.3221576772303
 31
0.0
  0
LINE
  5
1B9
102
{ACAD_REACTORS
330
27E
330
27F
102
}
330
71
100
AcDbEntity
  8
0
  6
Continuous
 62
     2
100
AcDbLine
 10
150.2009233456131
 20
744.0497413507
 30
0.0
 11
151.0120223830877
 21
744.0497413507
 31
0.0
  0
LINE
  5
1BA
102
{ACAD_REACTORS
330
27E
330
27F
102
}
330
71
100
AcDbEntity
  8
0
  6
Continuous
 62
     2
100
AcDbLine
 10
153.0159141227267
 20
744.8350066568235
 30
0.0
 11
150.2009233456131
 21
744.8350066568235
 31
0.0
  0
LINE
  5
1BB
102
{ACAD_REACTORS
330
27E
330
27F
102
}
330
71
100
AcDbEntity
  8
0
  6
Continuous
 62
     2
100
AcDbLine
 10
153.0159141227267
 20
744.0497413507
 30
0.0
 11
153.0159141227267
 21
744.8350066568235
 31
0.0
  0
LINE
  5
1BC
102
{ACAD_REACTORS
330
27E
330
27F
102
}
330
71
100
AcDbEntity
  8
0
  6
Continuous
 62
     2
100
AcDbLine
 10
152.2048150852542
 20
744.0497413507
 30
0.0
 11
153.0159141227267
 21
744.0497413507
 31
0.0
  0
LINE
  5
1BD
102
{ACAD_REACTORS
330
27E
330
27F
102
}
330
71
100
AcDbEntity
  8
0
  6
Continuous
 62
     2
100
AcDbLine
 10
152.2048150852542
 20
741.7811971330125
 30
0.0
 11
152.2048150852542
 21
744.0497413507
 31
0.0
  0
LINE
  5
1BE
102
{ACAD_REACTORS
330
27C
330
27D
102
}
330
71
100
AcDbEntity
  8
0
  6
Continuous
 62
     2
100
AcDbLine
 10
152.8729299293522
 20
745.1403876091867
 30
0.0
 11
152.8729299293522
 21
746.4491631193914
 31
0.0
  0
LINE
  5
1BF
102
{ACAD_REACTORS
330
27C
330
27D
102
}
330
71
100
AcDbEntity
  8
0
  6
Continuous
 62
     2
100
AcDbLine
 10
151.6801372271857
 20
748.1941971329979
 30
0.0
 11
151.6801372271857
 21
745.1403876091867
 31
0.0
  0
LINE
  5
1C0
102
{ACAD_REACTORS
330
27C
330
27D
102
}
330
71
100
AcDbEntity
  8
0
  6
Continuous
 62
     2
100
AcDbLine
 10
152.8729299293522
 20
748.1941971329979
 30
0.0
 11
151.6801372271857
 21
748.1941971329979
 31
0.0
  0
LINE
  5
1C1
102
{ACAD_REACTORS
330
27C
330
27D
102
}
330
71
100
AcDbEntity
  8
0
  6
Continuous
 62
     2
100
AcDbLine
 10
154.1134343396062
 20
748.1941971329979
 30
0.0
 11
154.1134343396062
 21
746.8854216227927
 31
0.0
  0
LINE
  5
1C2
102
{ACAD_REACTORS
330
27A
330
27B
102
}
330
71
100
AcDbEntity
  8
0
  6
Continuous
 62
     2
100
AcDbLine
 10
146.431698406766
 20
744.8350066568235
 30
0.0
 11
146.431698406766
 21
741.7811971330125
 31
0.0
  0
LINE
  5
1C3
102
{ACAD_REACTORS
330
27A
330
27B
102
}
330
71
100
AcDbEntity
  8
0
  6
Continuous
 62
     2
100
AcDbLine
 10
147.6244911089336
 20
744.8350066568235
 30
0.0
 11
146.431698406766
 21
744.8350066568235
 31
0.0
  0
LINE
  5
1C4
102
{ACAD_REACTORS
330
27A
330
27B
102
}
330
71
100
AcDbEntity
  8
0
  6
Continuous
 62
     2
100
AcDbLine
 10
148.8649955191865
 20
741.7811971330125
 30
0.0
 11
150.0577882213529
 21
741.7811971330125
 31
0.0
  0
LINE
  5
1C5
102
{ACAD_REACTORS
330
27A
330
27B
102
}
330
71
100
AcDbEntity
  8
0
  6
Continuous
 62
     2
100
AcDbLine
 10
146.431698406766
 20
741.7811971330125
 30
0.0
 11
147.6244911089336
 21
741.7811971330125
 31
0.0
  0
LINE
  5
1C6
102
{ACAD_REACTORS
330
28A
330
28B
102
}
330
71
100
AcDbEntity
  8
0
  6
Continuous
 62
     2
100
AcDbLine
 10
150.1056508603251
 20
747.0162991738132
 30
0.0
 11
150.1056508603251
 21
747.4961835275549
 31
0.0
  0
LINE
  5
1C7
102
{ACAD_REACTORS
330
28A
330
28B
102
}
330
71
100
AcDbEntity
  8
0
  6
Continuous
 62
     2
100
AcDbLine
 10
151.4415786867528
 20
747.0162991738132
 30
0.0
 11
150.1056508603251
 21
747.0162991738132
 31
0.0
  0
LINE
  5
1C8
102
{ACAD_REACTORS
330
28A
330
28B
102
}
330
71
100
AcDbEntity
  8
0
  6
Continuous
 62
     2
100
AcDbLine
 10
151.4415786867528
 20
746.3182855683709
 30
0.0
 11
151.4415786867528
 21
747.0162991738132
 31
0.0
  0
LINE
  5
1C9
102
{ACAD_REACTORS
330
28A
330
28B
102
}
330
71
100
AcDbEntity
  8
0
  6
Continuous
 62
     2
100
AcDbLine
 10
150.1056508603251
 20
746.3182855683709
 30
0.0
 11
151.4415786867528
 21
746.3182855683709
 31
0.0
  0
LINE
  5
1CA
102
{ACAD_REACTORS
330
278
330
279
102
}
330
71
100
AcDbEntity
  8
0
  6
Continuous
 62
     2
100
AcDbLine
 10
146.6226961699982
 20
748.1941971329979
 30
0.0
 11
146.6226961699982
 21
745.1403876091867
 31
0.0
  0
LINE
  5
1CB
102
{ACAD_REACTORS
330
278
330
279
102
}
330
71
100
AcDbEntity
  8
0
  6
Continuous
 62
     2
100
AcDbLine
 10
146.6226961699982
 20
745.1403876091867
 30
0.0
 11
145.4299034678318
 21
745.1403876091867
 31
0.0
  0
LINE
  5
1CC
102
{ACAD_REACTORS
330
278
330
279
102
}
330
71
100
AcDbEntity
  8
0
  6
Continuous
 62
     2
100
AcDbLine
 10
145.4299034678318
 20
745.1403876091867
 30
0.0
 11
145.4299034678318
 21
746.2746597180305
 31
0.0
  0
LINE
  5
1CD
102
{ACAD_REACTORS
330
278
330
279
102
}
330
71
100
AcDbEntity
  8
0
  6
Continuous
 62
     2
100
AcDbLine
 10
144.3802458899243
 20
745.1403876091867
 30
0.0
 11
143.1874531877577
 21
745.1403876091867
 31
0.0
  0
LINE
  5
1CE
102
{ACAD_REACTORS
330
278
330
279
102
}
330
71
100
AcDbEntity
  8
0
  6
Continuous
 62
     2
100
AcDbLine
 10
143.1874531877577
 20
748.1941971329979
 30
0.0
 11
144.3802458899243
 21
748.1941971329979
 31
0.0
  0
LINE
  5
1CF
102
{ACAD_REACTORS
330
278
330
279
102
}
330
71
100
AcDbEntity
  8
0
  6
Continuous
 62
     2
100
AcDbLine
 10
144.3802458899243
 20
748.1941971329979
 30
0.0
 11
144.3802458899243
 21
747.1253637996633
 31
0.0
  0
LINE
  5
1D0
102
{ACAD_REACTORS
330
278
330
279
102
}
330
71
100
AcDbEntity
  8
0
  6
Continuous
 62
     2
100
AcDbLine
 10
144.3802458899243
 20
747.1253637996633
 30
0.0
 11
145.4299034678318
 21
747.1253637996633
 31
0.0
  0
LINE
  5
1D1
102
{ACAD_REACTORS
330
286
330
287
102
}
330
71
100
AcDbEntity
  8
0
  6
Continuous
 62
     2
100
AcDbLine
 10
141.2312731562041
 20
747.5310912875578
 30
0.0
 11
141.548568217746
 21
747.5310912875578
 31
0.0
  0
LINE
  5
1D2
102
{ACAD_REACTORS
330
286
330
287
102
}
330
71
100
AcDbEntity
  8
0
  6
Continuous
 62
     2
100
AcDbLine
 10
141.2312731562041
 20
746.8253636382155
 30
0.0
 11
141.548568217746
 21
746.8253636382155
 31
0.0
  0
LINE
  5
1D3
102
{ACAD_REACTORS
330
286
330
287
102
}
330
71
100
AcDbEntity
  8
0
  6
Continuous
 62
     2
100
AcDbLine
 10
139.99076874595
 20
748.1941971329979
 30
0.0
 11
139.99076874595
 21
745.1403876091867
 31
0.0
  0
LINE
  5
1D4
102
{ACAD_REACTORS
330
286
330
287
102
}
330
71
100
AcDbEntity
  8
0
  6
Continuous
 62
     2
100
AcDbLine
 10
139.99076874595
 20
748.1941971329979
 30
0.0
 11
141.9900407439844
 21
748.1941971329979
 31
0.0
  0
LINE
  5
1D5
102
{ACAD_REACTORS
330
286
330
287
102
}
330
71
100
AcDbEntity
  8
0
  6
Continuous
 62
     2
100
AcDbLine
 10
141.2312731562041
 20
746.0834658503305
 30
0.0
 11
141.9900407439844
 21
746.0834658503305
 31
0.0
  0
LINE
  5
1D6
102
{ACAD_REACTORS
330
28C
330
28D
102
}
330
71
100
AcDbEntity
  8
0
  6
Continuous
 62
     2
100
AcDbLine
 10
133.8942727126533
 20
747.1659246543632
 30
0.0
 11
133.8942727126533
 21
742.809469611646
 31
0.0
  0
LINE
  5
1D7
102
{ACAD_REACTORS
330
28C
330
28D
102
}
330
71
100
AcDbEntity
  8
0
  6
Continuous
 62
     2
100
AcDbLine
 10
134.209989635729
 20
747.4816415774393
 30
0.0
 11
135.6858228967386
 21
747.4816415774393
 31
0.0
  0
LINE
  5
1D8
102
{ACAD_REACTORS
330
28C
330
28D
102
}
330
71
100
AcDbEntity
  8
0
  6
Continuous
 62
     2
100
AcDbLine
 10
136.0015398198152
 20
746.5619000353026
 30
0.0
 11
136.0015398198152
 21
747.1659246543632
 31
0.0
  0
LINE
  5
1D9
102
{ACAD_REACTORS
330
28C
330
28D
102
}
330
71
100
AcDbEntity
  8
0
  6
Continuous
 62
     2
100
AcDbLine
 10
136.0015398198152
 20
742.809469611646
 30
0.0
 11
136.0015398198152
 21
744.3402405431776
 31
0.0
  0
LINE
  5
1DA
102
{ACAD_REACTORS
330
28C
330
28D
102
}
330
71
100
AcDbEntity
  8
0
  6
Continuous
 62
     2
100
AcDbLine
 10
139.0894070496993
 20
741.7811971330125
 30
0.0
 11
133.6160949589825
 21
741.7811971330125
 31
0.0
  0
LINE
  5
1DB
102
{ACAD_REACTORS
330
28C
330
28D
102
}
330
71
100
AcDbEntity
  8
0
  6
Continuous
 62
     2
100
AcDbLine
 10
139.5136516650832
 20
747.7699525175959
 30
0.0
 11
139.5136516650832
 21
742.2054417483957
 31
0.0
  0
LINE
  5
1DC
102
{ACAD_REACTORS
330
28C
330
28D
102
}
330
71
100
AcDbEntity
  8
0
  6
Continuous
 62
     2
100
AcDbLine
 10
133.6160949589825
 20
748.1941971329798
 30
0.0
 11
139.0894070496993
 21
748.1941971329798
 31
0.0
  0
LINE
  5
1DD
102
{ACAD_REACTORS
330
28C
330
28D
102
}
330
71
100
AcDbEntity
  8
0
  6
Continuous
 62
     2
100
AcDbLine
 10
133.1918503435997
 20
747.7699525175959
 30
0.0
 11
133.1918503435997
 21
742.2054417483957
 31
0.0
  0
LINE
  5
1DE
102
{ACAD_REACTORS
330
28C
330
28D
102
}
330
71
100
AcDbEntity
  8
0
  6
Continuous
 62
     2
100
AcDbLine
 10
135.6858228967386
 20
742.4937526885693
 30
0.0
 11
134.209989635729
 21
742.4937526885693
 31
0.0
  0
LINE
  5
1DF
102
{ACAD_REACTORS
330
286
330
287
102
}
330
71
100
AcDbEntity
  8
0
  6
Continuous
 62
     2
100
AcDbLine
 10
141.2312731562041
 20
745.1403876091867
 30
0.0
 11
141.2312731562041
 21
746.0834658503305
 31
0.0
  0
LINE
  5
1E0
102
{ACAD_REACTORS
330
286
330
287
102
}
330
71
100
AcDbEntity
  8
0
  6
Continuous
 62
     2
100
AcDbLine
 10
139.99076874595
 20
745.1403876091867
 30
0.0
 11
141.2312731562041
 21
745.1403876091867
 31
0.0
  0
LINE
  5
1E1
102
{ACAD_REACTORS
330
286
330
287
102
}
330
71
100
AcDbEntity
  8
0
  6
Continuous
 62
     2
100
AcDbLine
 10
141.2312731562041
 20
746.8253636382155
 30
0.0
 11
141.2312731562041
 21
747.5310912875578
 31
0.0
  0
LINE
  5
1E2
102
{ACAD_REACTORS
330
278
330
279
102
}
330
71
100
AcDbEntity
  8
0
  6
Continuous
 62
     2
100
AcDbLine
 10
143.1874531877577
 20
748.1941971329979
 30
0.0
 11
143.1874531877577
 21
745.1403876091867
 31
0.0
  0
LINE
  5
1E3
102
{ACAD_REACTORS
330
278
330
279
102
}
330
71
100
AcDbEntity
  8
0
  6
Continuous
 62
     2
100
AcDbLine
 10
144.3802458899243
 20
746.2746597180305
 30
0.0
 11
144.3802458899243
 21
745.1403876091867
 31
0.0
  0
LINE
  5
1E4
102
{ACAD_REACTORS
330
278
330
279
102
}
330
71
100
AcDbEntity
  8
0
  6
Continuous
 62
     2
100
AcDbLine
 10
145.4299034678318
 20
746.2746597180305
 30
0.0
 11
144.3802458899243
 21
746.2746597180305
 31
0.0
  0
LINE
  5
1E5
102
{ACAD_REACTORS
330
278
330
279
102
}
330
71
100
AcDbEntity
  8
0
  6
Continuous
 62
     2
100
AcDbLine
 10
145.4299034678318
 20
748.1941971329979
 30
0.0
 11
146.6226961699982
 21
748.1941971329979
 31
0.0
  0
LINE
  5
1E6
102
{ACAD_REACTORS
330
278
330
279
102
}
330
71
100
AcDbEntity
  8
0
  6
Continuous
 62
     2
100
AcDbLine
 10
145.4299034678318
 20
747.1253637996633
 30
0.0
 11
145.4299034678318
 21
748.1941971329979
 31
0.0
  0
LINE
  5
1E7
102
{ACAD_REACTORS
330
28A
330
28B
102
}
330
71
100
AcDbEntity
  8
0
  6
Continuous
 62
     2
100
AcDbLine
 10
151.4415786867528
 20
747.4961835275549
 30
0.0
 11
151.4415786867528
 21
748.1941971329979
 31
0.0
  0
LINE
  5
1E8
102
{ACAD_REACTORS
330
28A
330
28B
102
}
330
71
100
AcDbEntity
  8
0
  6
Continuous
 62
     2
100
AcDbLine
 10
148.2912589629718
 20
748.1941971329979
 30
0.0
 11
151.4415786867528
 21
748.1941971329979
 31
0.0
  0
LINE
  5
1E9
102
{ACAD_REACTORS
330
28A
330
28B
102
}
330
71
100
AcDbEntity
  8
0
  6
Continuous
 62
     2
100
AcDbLine
 10
148.2912589629718
 20
745.1403876091867
 30
0.0
 11
151.4415786867528
 21
745.1403876091867
 31
0.0
  0
LINE
  5
1EA
102
{ACAD_REACTORS
330
28A
330
28B
102
}
330
71
100
AcDbEntity
  8
0
  6
Continuous
 62
     2
100
AcDbLine
 10
151.4415786867528
 20
745.1403876091867
 30
0.0
 11
151.4415786867528
 21
745.8384012146292
 31
0.0
  0
LINE
  5
1EB
102
{ACAD_REACTORS
330
28A
330
28B
102
}
330
71
100
AcDbEntity
  8
0
  6
Continuous
 62
     2
100
AcDbLine
 10
151.4415786867528
 20
745.8384012146292
 30
0.0
 11
150.1056508603251
 21
745.8384012146292
 31
0.0
  0
LINE
  5
1EC
102
{ACAD_REACTORS
330
28A
330
28B
102
}
330
71
100
AcDbEntity
  8
0
  6
Continuous
 62
     2
100
AcDbLine
 10
150.1056508603251
 20
745.8384012146292
 30
0.0
 11
150.1056508603251
 21
746.3182855683709
 31
0.0
  0
LINE
  5
1ED
102
{ACAD_REACTORS
330
28A
330
28B
102
}
330
71
100
AcDbEntity
  8
0
  6
Continuous
 62
     2
100
AcDbLine
 10
150.1056508603251
 20
747.4961835275549
 30
0.0
 11
151.4415786867528
 21
747.4961835275549
 31
0.0
  0
LINE
  5
1EE
102
{ACAD_REACTORS
330
27A
330
27B
102
}
330
71
100
AcDbEntity
  8
0
  6
Continuous
 62
     2
100
AcDbLine
 10
147.6244911089336
 20
741.7811971330125
 30
0.0
 11
147.6244911089336
 21
743.089972643217
 31
0.0
  0
LINE
  5
1EF
102
{ACAD_REACTORS
330
27A
330
27B
102
}
330
71
100
AcDbEntity
  8
0
  6
Continuous
 62
     2
100
AcDbLine
 10
147.6244911089336
 20
743.089972643217
 30
0.0
 11
148.8649955191865
 21
741.7811971330125
 31
0.0
  0
LINE
  5
1F0
102
{ACAD_REACTORS
330
27A
330
27B
102
}
330
71
100
AcDbEntity
  8
0
  6
Continuous
 62
     2
100
AcDbLine
 10
150.0577882213529
 20
741.7811971330125
 30
0.0
 11
150.0577882213529
 21
744.8350066568235
 31
0.0
  0
LINE
  5
1F1
102
{ACAD_REACTORS
330
27A
330
27B
102
}
330
71
100
AcDbEntity
  8
0
  6
Continuous
 62
     2
100
AcDbLine
 10
150.0577882213529
 20
744.8350066568235
 30
0.0
 11
148.8649955191865
 21
744.8350066568235
 31
0.0
  0
LINE
  5
1F2
102
{ACAD_REACTORS
330
27A
330
27B
102
}
330
71
100
AcDbEntity
  8
0
  6
Continuous
 62
     2
100
AcDbLine
 10
148.8649955191865
 20
744.8350066568235
 30
0.0
 11
148.8649955191865
 21
743.5262311466184
 31
0.0
  0
LINE
  5
1F3
102
{ACAD_REACTORS
330
27A
330
27B
102
}
330
71
100
AcDbEntity
  8
0
  6
Continuous
 62
     2
100
AcDbLine
 10
148.8649955191865
 20
743.5262311466184
 30
0.0
 11
147.6244911089336
 21
744.8350066568235
 31
0.0
  0
LINE
  5
1F4
102
{ACAD_REACTORS
330
27C
330
27D
102
}
330
71
100
AcDbEntity
  8
0
  6
Continuous
 62
     2
100
AcDbLine
 10
152.8729299293522
 20
746.4491631193914
 30
0.0
 11
154.1134343396062
 21
745.1403876091867
 31
0.0
  0
LINE
  5
1F5
102
{ACAD_REACTORS
330
27C
330
27D
102
}
330
71
100
AcDbEntity
  8
0
  6
Continuous
 62
     2
100
AcDbLine
 10
154.1134343396062
 20
745.1403876091867
 30
0.0
 11
155.3062270417728
 21
745.1403876091867
 31
0.0
  0
LINE
  5
1F6
102
{ACAD_REACTORS
330
27C
330
27D
102
}
330
71
100
AcDbEntity
  8
0
  6
Continuous
 62
     2
100
AcDbLine
 10
155.3062270417728
 20
745.1403876091867
 30
0.0
 11
155.3062270417728
 21
748.1941971329979
 31
0.0
  0
LINE
  5
1F7
102
{ACAD_REACTORS
330
27C
330
27D
102
}
330
71
100
AcDbEntity
  8
0
  6
Continuous
 62
     2
100
AcDbLine
 10
155.3062270417728
 20
748.1941971329979
 30
0.0
 11
154.1134343396062
 21
748.1941971329979
 31
0.0
  0
LINE
  5
1F8
102
{ACAD_REACTORS
330
27C
330
27D
102
}
330
71
100
AcDbEntity
  8
0
  6
Continuous
 62
     2
100
AcDbLine
 10
154.1134343396062
 20
746.8854216227927
 30
0.0
 11
152.8729299293522
 21
748.1941971329979
 31
0.0
  0
LINE
  5
1F9
102
{ACAD_REACTORS
330
27C
330
27D
102
}
330
71
100
AcDbEntity
  8
0
  6
Continuous
 62
     2
100
AcDbLine
 10
151.6801372271857
 20
745.1403876091867
 30
0.0
 11
152.8729299293522
 21
745.1403876091867
 31
0.0
  0
LINE
  5
1FA
102
{ACAD_REACTORS
330
27E
330
27F
102
}
330
71
100
AcDbEntity
  8
0
  6
Continuous
 62
     2
100
AcDbLine
 10
150.2009233456131
 20
744.8350066568235
 30
0.0
 11
150.2009233456131
 21
744.0497413507
 31
0.0
  0
LINE
  5
1FB
102
{ACAD_REACTORS
330
27E
330
27F
102
}
330
71
100
AcDbEntity
  8
0
  6
Continuous
 62
     2
100
AcDbLine
 10
151.0120223830877
 20
744.0497413507
 30
0.0
 11
151.0120223830877
 21
741.7811971330125
 31
0.0
  0
LINE
  5
1FC
102
{ACAD_REACTORS
330
27E
330
27F
102
}
330
71
100
AcDbEntity
  8
0
  6
Continuous
 62
     2
100
AcDbLine
 10
151.0120223830877
 20
741.7811971330125
 30
0.0
 11
152.2048150852542
 21
741.7811971330125
 31
0.0
  0
LINE
  5
1FD
102
{ACAD_REACTORS
330
280
330
281
102
}
330
71
100
AcDbEntity
  8
0
  6
Continuous
 62
     2
100
AcDbLine
 10
155.1543415786737
 20
741.7811971330125
 30
0.0
 11
154.9428615251979
 21
742.3221576772303
 31
0.0
  0
LINE
  5
1FE
102
{ACAD_REACTORS
330
280
330
281
102
}
330
71
100
AcDbEntity
  8
0
  6
Continuous
 62
     2
100
AcDbLine
 10
154.9968929419873
 20
744.8350066568235
 30
0.0
 11
156.3948459889276
 21
741.7811971330125
 31
0.0
  0
LINE
  5
1FF
102
{ACAD_REACTORS
330
280
330
281
102
}
330
71
100
AcDbEntity
  8
0
  6
Continuous
 62
     2
100
AcDbLine
 10
153.7563885317346
 20
744.8350066568235
 30
0.0
 11
154.9968929419873
 21
744.8350066568235
 31
0.0
  0
LINE
  5
200
102
{ACAD_REACTORS
330
280
330
281
102
}
330
71
100
AcDbEntity
  8
0
  6
Continuous
 62
     2
100
AcDbLine
 10
152.3584354847953
 20
741.7811971330125
 30
0.0
 11
153.5989398950483
 21
741.7811971330125
 31
0.0
  0
LINE
  5
201
102
{ACAD_REACTORS
330
280
330
281
102
}
330
71
100
AcDbEntity
  8
0
  6
Continuous
 62
     2
100
AcDbLine
 10
154.0764754996691
 20
743.0027209425369
 30
0.0
 11
154.6768059740516
 21
743.0027209425369
 31
0.0
  0
LINE
  5
202
102
{ACAD_REACTORS
330
280
330
281
102
}
330
71
100
AcDbEntity
  8
0
  6
Continuous
 62
     2
100
AcDbLine
 10
154.6768059740516
 20
743.0027209425369
 30
0.0
 11
154.3766407368615
 21
743.7705359085236
 31
0.0
  0
LINE
  5
203
102
{ACAD_REACTORS
330
282
330
283
102
}
330
71
100
AcDbEntity
  8
0
  6
Continuous
 62
     2
100
AcDbLine
 10
156.7852899924596
 20
745.1403876091867
 30
0.0
 11
155.5447855822067
 21
745.1403876091867
 31
0.0
  0
LINE
  5
204
102
{ACAD_REACTORS
330
284
330
285
102
}
330
71
100
AcDbEntity
  8
0
  6
Continuous
 62
     2
100
AcDbLine
 10
158.3072934804247
 20
745.1403876091867
 30
0.0
 11
156.9045692626765
 21
745.1403876091867
 31
0.0
  0
LINE
  5
205
102
{ACAD_REACTORS
330
284
330
285
102
}
330
71
100
AcDbEntity
  8
0
  6
Continuous
 62
     2
100
AcDbLine
 10
158.3072934804247
 20
745.1403876091867
 30
0.0
 11
159.0038844184904
 21
745.9281193944804
 31
0.0
  0
LINE
  5
206
102
{ACAD_REACTORS
330
284
330
285
102
}
330
71
100
AcDbEntity
  8
0
  6
Continuous
 62
     2
100
AcDbLine
 10
159.6050519403832
 20
748.1941971329979
 30
0.0
 11
161.0077761581304
 21
748.1941971329979
 31
0.0
  0
LINE
  5
207
102
{ACAD_REACTORS
330
284
330
285
102
}
330
71
100
AcDbEntity
  8
0
  6
Continuous
 62
     2
100
AcDbLine
 10
156.9999926788493
 20
748.1941971329979
 30
0.0
 11
158.3025223096168
 21
746.7212466029617
 31
0.0
  0
LINE
  5
208
102
{ACAD_REACTORS
330
284
330
285
102
}
330
71
100
AcDbEntity
  8
0
  6
Continuous
 62
     2
100
AcDbLine
 10
156.9045692626765
 20
745.1403876091867
 30
0.0
 11
158.3025223096168
 21
746.7212466029617
 31
0.0
  0
LINE
  5
209
102
{ACAD_REACTORS
330
28E
330
28F
102
}
330
71
100
AcDbEntity
  8
0
  6
Continuous
 62
     2
100
AcDbLine
 10
158.7653258780564
 20
742.8282175411761
 30
0.0
 11
158.7653258780564
 21
741.9557005343727
 31
0.0
  0
LINE
  5
20A
102
{ACAD_REACTORS
330
28E
330
28F
102
}
330
71
100
AcDbEntity
  8
0
  6
Continuous
 62
     2
100
AcDbLine
 10
157.995668535095
 20
744.0497413507
 30
0.0
 11
159.0993078346631
 21
744.0497413507
 31
0.0
  0
LINE
  5
20B
102
{ACAD_REACTORS
330
290
330
291
102
}
330
71
100
AcDbEntity
  8
0
  6
Continuous
 62
     2
100
AcDbLine
 10
142.6626243988045
 20
742.8282175411765
 30
0.0
 11
142.6626243988045
 21
741.9557005343734
 31
0.0
  0
LINE
  5
20C
102
{ACAD_REACTORS
330
290
330
291
102
}
330
71
100
AcDbEntity
  8
0
  6
Continuous
 62
     2
100
AcDbLine
 10
142.6626243988045
 20
743.7879862486594
 30
0.0
 11
142.6626243988045
 21
744.6605032554627
 31
0.0
  0
LINE
  5
20D
330
71
100
AcDbEntity
  8
1
  6
Continuous
 62
     7
100
AcDbLine
 10
258.4999999837884
 20
742.9876971329961
 30
0.0
 11
165.355195457037
 21
742.9876971329961
 31
0.0
  0
LINE
  5
20E
330
71
100
AcDbEntity
  8
1
  6
Continuous
 62
     6
100
AcDbLine
 10
59.95519545703712
 20
734.4876971329961
 30
0.0
 11
14.99999998378712
 21
734.4876971329961
 31
0.0
  0
LINE
  5
20F
330
71
100
AcDbEntity
  8
1
  6
Continuous
 62
     7
100
AcDbLine
 10
249.5815917021096
 20
759.9876971329961
 30
0.0
 11
249.5815917021096
 21
751.4876971329961
 31
0.0
  0
LINE
  5
210
330
71
100
AcDbEntity
  8
1
  6
Continuous
 62
     7
100
AcDbLine
 10
223.08159170211
 20
759.9876971329961
 30
0.0
 11
223.08159170211
 21
751.4876971329961
 31
0.0
  0
LINE
  5
211
330
71
100
AcDbEntity
  8
1
  6
Continuous
 62
     7
100
AcDbLine
 10
165.355195457037
 20
751.4876971329961
 30
0.0
 11
165.355195457037
 21
759.9876971329961
 31
0.0
  0
LINE
  5
212
330
71
100
AcDbEntity
  8
1
  6
Continuous
 62
     7
100
AcDbLine
 10
128.9551954570371
 20
751.4876971329961
 30
0.0
 11
128.9551954570371
 21
759.9876971329961
 31
0.0
  0
LINE
  5
213
330
71
100
AcDbEntity
  8
1
  6
Continuous
 62
     6
100
AcDbLine
 10
165.355195457037
 20
751.4876971329961
 30
0.0
 11
258.4999999837888
 21
751.4876971329961
 31
0.0
  0
LINE
  5
214
330
71
100
AcDbEntity
  8
1
  6
Continuous
 62
     7
100
AcDbLine
 10
193.2551954570371
 20
742.987697132996
 30
0.0
 11
193.2551954570371
 21
751.4876971329961
 31
0.0
  0
LINE
  5
215
330
71
100
AcDbEntity
  8
1
  6
PHANTOM
 62
     2
100
AcDbLine
 10
144.4418503435997
 20
755.612697132996
 30
0.0
 11
138.9418503435997
 21
755.612697132996
 31
0.0
  0
LINE
  5
216
330
71
100
AcDbEntity
  8
1
  6
PHANTOM
 62
     2
100
AcDbLine
 10
141.6918503435997
 20
758.362697132996
 30
0.0
 11
141.6918503435997
 21
752.862697132996
 31
0.0
  0
LINE
  5
217
330
71
100
AcDbEntity
  8
1
  6
DOT_CENTER
 62
     2
100
AcDbLine
 10
132.9418503435997
 20
755.612697132996
 30
0.0
 11
138.4418503435997
 21
755.612697132996
 31
0.0
  0
ARC
  5
218
102
{ACAD_REACTORS
330
290
330
291
102
}
330
71
100
AcDbEntity
  8
0
  6
Continuous
 62
     2
100
AcDbCircle
 10
141.3266964816867
 20
739.9954209496618
 30
0.0
 40
4.85259686349804
100
AcDbArc
 50
74.02000874164729
 51
84.84185523037509
  0
ARC
  5
219
102
{ACAD_REACTORS
330
290
330
291
102
}
330
71
100
AcDbEntity
  8
0
  6
Continuous
 62
     2
100
AcDbCircle
 10
141.9027370904404
 20
743.1511813055461
 30
0.0
 40
0.9059297849853768
100
AcDbArc
 50
71.55192388185462
 51
113.3722778881292
  0
ARC
  5
21A
102
{ACAD_REACTORS
330
290
330
291
102
}
330
71
100
AcDbEntity
  8
0
  6
Continuous
 62
     2
100
AcDbCircle
 10
141.7462970577384
 20
743.1030304655792
 30
0.0
 40
0.5115800601948034
100
AcDbArc
 50
208.5214732576956
 51
246.6277221118219
  0
ARC
  5
21B
102
{ACAD_REACTORS
330
290
330
291
102
}
330
71
100
AcDbEntity
  8
0
  6
Continuous
 62
     2
100
AcDbCircle
 10
141.9027370904404
 20
743.4650224842892
 30
0.0
 40
0.9059297849848783
100
AcDbArc
 50
246.627722111868
 51
288.448076118159
  0
ARC
  5
21C
102
{ACAD_REACTORS
330
290
330
291
102
}
330
71
100
AcDbEntity
  8
0
  6
Continuous
 62
     2
100
AcDbCircle
 10
141.4845693567796
 20
744.7185682603264
 30
0.0
 40
2.227384008972719
100
AcDbArc
 50
288.4480761181337
 51
301.9309089499603
  0
ARC
  5
21D
102
{ACAD_REACTORS
330
28C
330
28D
102
}
330
71
100
AcDbEntity
  8
0
  6
Continuous
 62
     2
100
AcDbCircle
 10
136.2594956241728
 20
745.4510702892404
 30
0.0
 40
0.9118481501444333
100
AcDbArc
 50
295.3740086781772
 51
64.62599132180748
  0
ARC
  5
21E
102
{ACAD_REACTORS
330
28C
330
28D
102
}
330
71
100
AcDbEntity
  8
0
  6
Continuous
 62
     2
100
AcDbCircle
 10
136.7855383222607
 20
747.165747177715
 30
0.0
 40
0.3157169230760142
100
AcDbArc
 50
90.18896704254595
 51
180.0
  0
ARC
  5
21F
102
{ACAD_REACTORS
330
28E
330
28F
102
}
330
71
100
AcDbEntity
  8
0
  6
Continuous
 62
     2
100
AcDbCircle
 10
157.995668535095
 20
743.0952183438739
 30
0.0
 40
0.9545230068260935
100
AcDbArc
 50
90.0
 51
109.337143219432
  0
ARC
  5
220
102
{ACAD_REACTORS
330
28E
330
28F
102
}
330
71
100
AcDbEntity
  8
0
  6
Continuous
 62
     2
100
AcDbCircle
 10
158.2263557950727
 20
743.3081018949177
 30
0.0
 40
0.941059735334906
100
AcDbArc
 50
151.4785267423609
 51
208.5214732576695
  0
ARC
  5
221
102
{ACAD_REACTORS
330
28E
330
28F
102
}
330
71
100
AcDbEntity
  8
0
  6
Continuous
 62
     2
100
AcDbCircle
 10
158.0054385696944
 20
743.4650224842892
 30
0.0
 40
0.9059297849852278
100
AcDbArc
 50
246.6277221118168
 51
288.4480761180828
  0
ARC
  5
222
102
{ACAD_REACTORS
330
28E
330
28F
102
}
330
71
100
AcDbEntity
  8
0
  6
Continuous
 62
     2
100
AcDbCircle
 10
157.5872708360325
 20
744.7185682603258
 30
0.0
 40
2.227384008972719
100
AcDbArc
 50
288.4480761181337
 51
301.9309089499395
  0
ARC
  5
223
102
{ACAD_REACTORS
330
28E
330
28F
102
}
330
71
100
AcDbEntity
  8
0
  6
Continuous
 62
     2
100
AcDbCircle
 10
157.4293979609397
 20
746.6207828401741
 30
0.0
 40
4.852596863498825
100
AcDbArc
 50
275.1581447696364
 51
285.9799912583383
  0
ARC
  5
224
102
{ACAD_REACTORS
330
28E
330
28F
102
}
330
71
100
AcDbEntity
  8
0
  6
Continuous
 62
     2
100
AcDbCircle
 10
157.7182540556755
 20
743.4208922569526
 30
0.0
 40
1.639695123940421
100
AcDbArc
 50
195.0618917771015
 51
275.1581447696771
  0
ARC
  5
225
102
{ACAD_REACTORS
330
286
330
287
102
}
330
71
100
AcDbEntity
  8
0
  6
Continuous
 62
     2
100
AcDbCircle
 10
141.9900407439844
 20
747.1388314916642
 30
0.0
 40
1.055365641333651
100
AcDbArc
 50
270.0
 51
90.0
  0
ARC
  5
226
102
{ACAD_REACTORS
330
28C
330
28D
102
}
330
71
100
AcDbEntity
  8
0
  6
Continuous
 62
     2
100
AcDbCircle
 10
134.209989635729
 20
742.809469611646
 30
0.0
 40
0.3157169230756836
100
AcDbArc
 50
180.0
 51
270.0
  0
ARC
  5
227
102
{ACAD_REACTORS
330
28C
330
28D
102
}
330
71
100
AcDbEntity
  8
0
  6
Continuous
 62
     2
100
AcDbCircle
 10
135.6858228967386
 20
747.1659246543632
 30
0.0
 40
0.315716923076593
100
AcDbArc
 50
0.0
 51
90.0
  0
ARC
  5
228
102
{ACAD_REACTORS
330
28C
330
28D
102
}
330
71
100
AcDbEntity
  8
0
  6
Continuous
 62
     2
100
AcDbCircle
 10
135.6858228967386
 20
746.5619000353026
 30
0.0
 40
0.3157169230761717
100
AcDbArc
 50
295.1944106485354
 51
0.0
  0
ARC
  5
229
102
{ACAD_REACTORS
330
28C
330
28D
102
}
330
71
100
AcDbEntity
  8
0
  6
Continuous
 62
     2
100
AcDbCircle
 10
135.6858228967386
 20
742.809469611646
 30
0.0
 40
0.3157169230767067
100
AcDbArc
 50
270.0
 51
0.0
  0
ARC
  5
22A
102
{ACAD_REACTORS
330
28C
330
28D
102
}
330
71
100
AcDbEntity
  8
0
  6
Continuous
 62
     2
100
AcDbCircle
 10
133.6160949589825
 20
747.7699525175959
 30
0.0
 40
0.4242446153838273
100
AcDbArc
 50
90.0
 51
180.0
  0
ARC
  5
22B
102
{ACAD_REACTORS
330
28C
330
28D
102
}
330
71
100
AcDbEntity
  8
0
  6
Continuous
 62
     2
100
AcDbCircle
 10
139.0894070496993
 20
747.7699525175959
 30
0.0
 40
0.4242446153838841
100
AcDbArc
 50
0.0
 51
90.0
  0
ARC
  5
22C
102
{ACAD_REACTORS
330
28C
330
28D
102
}
330
71
100
AcDbEntity
  8
0
  6
Continuous
 62
     2
100
AcDbCircle
 10
139.0894070496993
 20
742.2054417483957
 30
0.0
 40
0.4242446153832589
100
AcDbArc
 50
270.0
 51
0.0
  0
ARC
  5
22D
102
{ACAD_REACTORS
330
28A
330
28B
102
}
330
71
100
AcDbEntity
  8
0
  6
Continuous
 62
     2
100
AcDbCircle
 10
148.3077909367908
 20
746.667292371092
 30
0.0
 40
0.7717997786796373
100
AcDbArc
 50
321.8795802028437
 51
38.12041979716289
  0
ARC
  5
22E
102
{ACAD_REACTORS
330
28A
330
28B
102
}
330
71
100
AcDbEntity
  8
0
  6
Continuous
 62
     2
100
AcDbCircle
 10
148.507530973137
 20
746.5105611929716
 30
0.0
 40
0.5179085730134722
100
AcDbArc
 50
218.120419797156
 51
321.8795802028517
  0
ARC
  5
22F
102
{ACAD_REACTORS
330
288
330
289
102
}
330
71
100
AcDbEntity
  8
0
  6
Continuous
 62
     2
100
AcDbCircle
 10
144.8275233841768
 20
743.3081018949177
 30
0.0
 40
1.458034083651977
100
AcDbArc
 50
297.5481481757016
 51
62.45185182429842
  0
ARC
  5
230
102
{ACAD_REACTORS
330
288
330
289
102
}
330
71
100
AcDbEntity
  8
0
  6
Continuous
 62
     2
100
AcDbCircle
 10
144.2656436005102
 20
743.3081018949177
 30
0.0
 40
1.458034083651465
100
AcDbArc
 50
117.548148175663
 51
242.451851824337
  0
ARC
  5
231
102
{ACAD_REACTORS
330
288
330
289
102
}
330
71
100
AcDbEntity
  8
0
  6
Continuous
 62
     2
100
AcDbCircle
 10
144.5465834923435
 20
742.769526884615
 30
0.0
 40
2.065479772208543
100
AcDbArc
 50
62.451851824306
 51
117.5481481756667
  0
ARC
  5
232
102
{ACAD_REACTORS
330
288
330
289
102
}
330
71
100
AcDbEntity
  8
0
  6
Continuous
 62
     2
100
AcDbCircle
 10
144.5465834923435
 20
743.846676905221
 30
0.0
 40
2.065479772208433
100
AcDbArc
 50
242.4518518243391
 51
297.5481481756882
  0
ARC
  5
233
102
{ACAD_REACTORS
330
28A
330
28B
102
}
330
71
100
AcDbEntity
  8
0
  6
Continuous
 62
     2
100
AcDbCircle
 10
148.7072710094833
 20
746.667292371092
 30
0.0
 40
0.7717997786797075
100
AcDbArc
 50
141.8795802028371
 51
218.1204197971562
  0
ARC
  5
234
102
{ACAD_REACTORS
330
28A
330
28B
102
}
330
71
100
AcDbEntity
  8
0
  6
Continuous
 62
     2
100
AcDbCircle
 10
148.507530973137
 20
746.8240235492125
 30
0.0
 40
0.5179085730135616
100
AcDbArc
 50
38.12041979714829
 51
141.879580202844
  0
ARC
  5
235
102
{ACAD_REACTORS
330
28C
330
28D
102
}
330
71
100
AcDbEntity
  8
0
  6
Continuous
 62
     2
100
AcDbCircle
 10
133.6160949589825
 20
742.2054417483957
 30
0.0
 40
0.4242446153828041
100
AcDbArc
 50
180.0
 51
270.0
  0
ARC
  5
236
102
{ACAD_REACTORS
330
28C
330
28D
102
}
330
71
100
AcDbEntity
  8
0
  6
Continuous
 62
     2
100
AcDbCircle
 10
135.6858228967386
 20
744.3402405431776
 30
0.0
 40
0.315716923076593
100
AcDbArc
 50
0.0
 51
64.80558935146468
  0
ARC
  5
237
102
{ACAD_REACTORS
330
28C
330
28D
102
}
330
71
100
AcDbEntity
  8
0
  6
Continuous
 62
     2
100
AcDbCircle
 10
136.2084073443136
 20
745.4510702892404
 30
0.0
 40
0.9118975235575889
100
AcDbArc
 50
115.194410648529
 51
244.8055893514862
  0
ARC
  5
238
102
{ACAD_REACTORS
330
28C
330
28D
102
}
330
71
100
AcDbEntity
  8
0
  6
Continuous
 62
     2
100
AcDbCircle
 10
134.209989635729
 20
747.1659246543632
 30
0.0
 40
0.3157169230761383
100
AcDbArc
 50
90.0
 51
180.0
  0
ARC
  5
239
102
{ACAD_REACTORS
330
286
330
287
102
}
330
71
100
AcDbEntity
  8
0
  6
Continuous
 62
     2
100
AcDbCircle
 10
141.548568217746
 20
747.1782274628868
 30
0.0
 40
0.3528638246712035
100
AcDbArc
 50
270.0
 51
90.0
  0
ARC
  5
23A
102
{ACAD_REACTORS
330
28A
330
28B
102
}
330
71
100
AcDbEntity
  8
0
  6
Continuous
 62
     2
100
AcDbCircle
 10
148.2912589629718
 20
746.667292371092
 30
0.0
 40
1.526904761905939
100
AcDbArc
 50
90.0
 51
270.0
  0
ARC
  5
23B
102
{ACAD_REACTORS
330
28E
330
28F
102
}
330
71
100
AcDbEntity
  8
0
  6
Continuous
 62
     2
100
AcDbCircle
 10
157.7182540556755
 20
743.1953115328828
 30
0.0
 40
1.639695123940214
100
AcDbArc
 50
90.0
 51
164.9381082228947
  0
ARC
  5
23C
102
{ACAD_REACTORS
330
28E
330
28F
102
}
330
71
100
AcDbEntity
  8
0
  6
Continuous
 62
     2
100
AcDbCircle
 10
157.2991262122139
 20
743.3081018949177
 30
0.0
 40
1.205656168392988
100
AcDbArc
 50
164.9381082229054
 51
195.0618917770946
  0
ARC
  5
23D
102
{ACAD_REACTORS
330
28E
330
28F
102
}
330
71
100
AcDbEntity
  8
0
  6
Continuous
 62
     2
100
AcDbCircle
 10
157.8489985369913
 20
743.1030304655792
 30
0.0
 40
0.5115800601959944
100
AcDbArc
 50
208.521473257681
 51
246.6277221118424
  0
ARC
  5
23E
102
{ACAD_REACTORS
330
28E
330
28F
102
}
330
71
100
AcDbEntity
  8
0
  6
Continuous
 62
     2
100
AcDbCircle
 10
157.8489985369913
 20
743.5131733242567
 30
0.0
 40
0.5115800601944143
100
AcDbArc
 50
109.3371432194853
 51
151.4785267424197
  0
ARC
  5
23F
102
{ACAD_REACTORS
330
28C
330
28D
102
}
330
71
100
AcDbEntity
  8
0
  6
Continuous
 62
     2
100
AcDbCircle
 10
136.7855383222607
 20
743.760077282577
 30
0.0
 40
0.315716923076792
100
AcDbArc
 50
180.0
 51
269.8110329574542
  0
ARC
  5
240
102
{ACAD_REACTORS
330
28C
330
28D
102
}
330
71
100
AcDbEntity
  8
0
  6
Continuous
 62
     2
100
AcDbCircle
 10
136.7911544575707
 20
745.4629122301459
 30
0.0
 40
2.018561131933266
100
AcDbArc
 50
269.8110329575858
 51
90.18896704241416
  0
ARC
  5
241
102
{ACAD_REACTORS
330
28C
330
28D
102
}
330
71
100
AcDbEntity
  8
0
  6
Continuous
 62
     2
100
AcDbCircle
 10
136.7855383222607
 20
746.5602118892082
 30
0.0
 40
0.315716923076792
100
AcDbArc
 50
180.0
 51
244.6259913216437
  0
ARC
  5
242
102
{ACAD_REACTORS
330
28C
330
28D
102
}
330
71
100
AcDbEntity
  8
0
  6
Continuous
 62
     2
100
AcDbCircle
 10
136.7855383222607
 20
744.341928689272
 30
0.0
 40
0.3157169230765842
100
AcDbArc
 50
115.3740086783474
 51
180.0
  0
ARC
  5
243
102
{ACAD_REACTORS
330
290
330
291
102
}
330
71
100
AcDbEntity
  8
0
  6
Continuous
 62
     2
100
AcDbCircle
 10
141.6155525764226
 20
743.1953115328828
 30
0.0
 40
1.639695123940563
100
AcDbArc
 50
84.84185523036254
 51
164.9381082228867
  0
ARC
  5
244
102
{ACAD_REACTORS
330
290
330
291
102
}
330
71
100
AcDbEntity
  8
0
  6
Continuous
 62
     2
100
AcDbCircle
 10
141.1964247329598
 20
743.3081018949177
 30
0.0
 40
1.205656168390957
100
AcDbArc
 50
164.9381082228794
 51
195.0618917770945
  0
ARC
  5
245
102
{ACAD_REACTORS
330
290
330
291
102
}
330
71
100
AcDbEntity
  8
0
  6
Continuous
 62
     2
100
AcDbCircle
 10
141.6155525764226
 20
743.4208922569526
 30
0.0
 40
1.639695123939422
100
AcDbArc
 50
195.0618917770903
 51
275.1581447696393
  0
ARC
  5
246
102
{ACAD_REACTORS
330
290
330
291
102
}
330
71
100
AcDbEntity
  8
0
  6
Continuous
 62
     2
100
AcDbCircle
 10
141.3266964816867
 20
746.6207828401741
 30
0.0
 40
4.852596863498166
100
AcDbArc
 50
275.1581447696249
 51
285.979991258353
  0
ARC
  5
247
102
{ACAD_REACTORS
330
290
330
291
102
}
330
71
100
AcDbEntity
  8
0
  6
Continuous
 62
     2
100
AcDbCircle
 10
142.1236543158187
 20
743.3081018949177
 30
0.0
 40
0.9410597353332545
100
AcDbArc
 50
151.4785267422669
 51
208.5214732577088
  0
ARC
  5
248
102
{ACAD_REACTORS
330
290
330
291
102
}
330
71
100
AcDbEntity
  8
0
  6
Continuous
 62
     2
100
AcDbCircle
 10
141.7462970577384
 20
743.5131733242567
 30
0.0
 40
0.511580060194863
100
AcDbArc
 50
113.3722778882033
 51
151.4785267423044
  0
ARC
  5
249
102
{ACAD_REACTORS
330
290
330
291
102
}
330
71
100
AcDbEntity
  8
0
  6
Continuous
 62
     2
100
AcDbCircle
 10
141.4845693567796
 20
741.8976355295096
 30
0.0
 40
2.227384008973468
100
AcDbArc
 50
58.06909105003972
 51
71.5519238818663
  0
ARC
  5
24A
102
{ACAD_REACTORS
330
288
330
289
102
}
330
71
100
AcDbEntity
  8
0
  6
Continuous
 62
     2
100
AcDbCircle
 10
144.5465834923435
 20
743.4648330730382
 30
0.0
 40
0.5179085730133349
100
AcDbArc
 50
38.12041979715197
 51
141.8795802028538
  0
ARC
  5
24B
102
{ACAD_REACTORS
330
288
330
289
102
}
330
71
100
AcDbEntity
  8
0
  6
Continuous
 62
     2
100
AcDbCircle
 10
144.7463235286896
 20
743.3081018949177
 30
0.0
 40
0.7717997786794808
100
AcDbArc
 50
141.8795802028346
 51
218.120419797172
  0
ARC
  5
24C
102
{ACAD_REACTORS
330
288
330
289
102
}
330
71
100
AcDbEntity
  8
0
  6
Continuous
 62
     2
100
AcDbCircle
 10
144.5465834923435
 20
743.1513707167977
 30
0.0
 40
0.5179085730137529
100
AcDbArc
 50
218.1204197971956
 51
321.8795802027985
  0
ARC
  5
24D
102
{ACAD_REACTORS
330
288
330
289
102
}
330
71
100
AcDbEntity
  8
0
  6
Continuous
 62
     2
100
AcDbCircle
 10
144.3468434559971
 20
743.3081018949177
 30
0.0
 40
0.7717997786797298
100
AcDbArc
 50
321.8795802028384
 51
38.12041979715494
  0
CIRCLE
  5
24E
330
71
100
AcDbEntity
  8
1
  6
Continuous
 62
     2
100
AcDbCircle
 10
141.6918503435997
 20
755.612697132996
 30
0.0
 40
2.5
  0
CIRCLE
  5
24F
330
71
100
AcDbEntity
  8
1
  6
Continuous
 62
     2
100
AcDbCircle
 10
141.6918503435997
 20
755.612697132996
 30
0.0
 40
1.249999999999915
  0
CIRCLE
  5
250
102
{ACAD_REACTORS
330
28C
330
28D
102
}
330
71
100
AcDbEntity
  8
0
  6
Continuous
 62
     2
100
AcDbCircle
 10
136.2356806095
 20
745.4510702892404
 30
0.0
 40
0.470978932778479
  0
MTEXT
  5
251
330
71
100
AcDbEntity
  8
1
 62
     3
100
AcDbMText
 10
-28.4949322301411
 20
921.2790052882949
 30
0.0
 40
1.8
 41
0.0
 71
     7
 72
     1
  3
Weitergabe sowie Vervielf\U+00e4ltigung dieses Dokuments, Verwertung und \PMitteilung seines Inhalts sind verboten, soweit nicht ausdr\U+00fccklich gestattet. \PZuwiderhandlungen verpflichten zu Schadenersatz. Alle Rechte f\U+00fcr den Fall\Pder Pat
  1
ent-, Gebrauchsmuster- oder Designeintragung vorbehalten.
  7
CONVERTER_11
 73
     1
 44
0.99639855942377
  0
MTEXT
  5
252
330
71
100
AcDbEntity
  8
1
 62
     3
100
AcDbMText
 10
154.358177608647
 20
921.2790052882949
 30
0.0
 40
1.8
 41
0.0
 71
     7
 72
     1
  3
Transfer or duplication of this document as well as the utilisation or\Pcommunication of its content are not permitted unless express consent\Pis granted. Violations give rise to claims for damages. All rights reserved\Pin case of patent, utility mo
  1
del or design patent registrations.
  7
CONVERTER_11
 73
     1
 44
0.99639855942377
  0
TEXT
  5
253
330
71
100
AcDbEntity
  8
1
 62
     2
100
AcDbText
 10
148.1551954570369
 20
735.7286799180044
 30
0.0
 40
1.8
  1
of
 41
0.9
  7
CONVERTER_11
100
AcDbText
  0
TEXT
  5
254
330
71
100
AcDbEntity
  8
1
 62
     2
100
AcDbText
 10
129.9551954570371
 20
735.7286799180044
 30
0.0
 40
1.8
  1
page
 41
0.9
  7
CONVERTER_11
100
AcDbText
  0
TEXT
  5
255
330
71
100
AcDbEntity
  8
1
 62
     2
100
AcDbText
 10
138.6014604273791
 20
735.6884484791941
 30
0.0
 40
1.8
  1
1
 41
0.9
  7
CONVERTER_11
100
AcDbText
  0
TEXT
  5
256
330
71
100
AcDbEntity
  8
1
 62
     2
100
AcDbText
 10
153.3905042668506
 20
735.737697132996
 30
0.0
 40
1.8
  1
1
 41
0.9
  7
CONVERTER_11
100
AcDbText
  0
MTEXT
  5
258
330
71
100
AcDbEntity
  8
1
 62
     7
100
AcDbMText
 10
211.9275977204126
 20
737.7376971329963
 30
0.0
 40
3.0
 41
0.0
 71
     5
 72
     1
  1
D-ST 16-TWIN
  7
CONVERTER_12
 73
     1
 44
1.20048019207683
  0
MTEXT
  5
259
330
71
100
AcDbEntity
  8
1
 62
     2
100
AcDbMText
 10
166.355195457037
 20
741.9876971329961
 30
0.0
 40
1.8
 41
0.0
 71
     1
 72
     1
  1
description
  7
CONVERTER_11
 73
     1
 44
1.20048019207683
  0
MTEXT
  5
25A
330
71
100
AcDbEntity
  8
1
 62
     3
100
AcDbMText
 10
155.155195457037
 20
755.6126971329961
 30
0.0
 40
2.5
 41
0.0
 71
     5
 72
     1
  1
DIN A4
  7
CONVERTER_11
 73
     1
 44
1.20048019207683
  0
MTEXT
  5
25B
330
71
100
AcDbEntity
  8
1
 62
     7
100
AcDbMText
 10
-31.00000001621197
 20
756.9876971329961
 30
0.0
 40
3.5
 41
0.0
 71
     5
 72
     1
  1
D
  7
CONVERTER_11
 73
     1
 44
1.20048019207683
  0
MTEXT
  5
25C
330
71
100
AcDbEntity
  8
1
 62
     7
100
AcDbMText
 10
-31.00000001621197
 20
809.4876971329961
 30
0.0
 40
3.5
 41
0.0
 71
     5
 72
     1
  1
C
  7
CONVERTER_11
 73
     1
 44
1.20048019207683
  0
MTEXT
  5
25D
330
71
100
AcDbEntity
  8
1
 62
     7
100
AcDbMText
 10
-31.00000001621197
 20
859.4876971329961
 30
0.0
 40
3.5
 41
0.0
 71
     5
 72
     1
  1
B
  7
CONVERTER_11
 73
     1
 44
1.20048019207683
  0
MTEXT
  5
25E
330
71
100
AcDbEntity
  8
1
 62
     7
100
AcDbMText
 10
-31.00000001621197
 20
911.9876971329961
 30
0.0
 40
3.5
 41
0.0
 71
     5
 72
     1
  1
A
  7
CONVERTER_11
 73
     1
 44
1.20048019207683
  0
MTEXT
  5
25F
330
71
100
AcDbEntity
  8
1
 62
     7
100
AcDbMText
 10
239.2499999837863
 20
731.987697132996
 30
0.0
 40
3.5
 41
0.0
 71
     5
 72
     1
  1
6
  7
CONVERTER_11
 73
     1
 44
1.20048019207683
  0
MTEXT
  5
260
330
71
100
AcDbEntity
  8
1
 62
     7
100
AcDbMText
 10
189.9999999837871
 20
731.987697132996
 30
0.0
 40
3.5
 41
0.0
 71
     5
 72
     1
  1
5
  7
CONVERTER_11
 73
     1
 44
1.20048019207683
  0
MTEXT
  5
261
330
71
100
AcDbEntity
  8
1
 62
     7
100
AcDbMText
 10
139.999999983787
 20
731.987697132996
 30
0.0
 40
3.5
 41
0.0
 71
     5
 72
     1
  1
4
  7
CONVERTER_11
 73
     1
 44
1.20048019207683
  0
MTEXT
  5
262
330
71
100
AcDbEntity
  8
1
 62
     7
100
AcDbMText
 10
89.99999998378712
 20
731.987697132996
 30
0.0
 40
3.5
 41
0.0
 71
     5
 72
     1
  1
3
  7
CONVERTER_11
 73
     1
 44
1.20048019207683
  0
MTEXT
  5
263
330
71
100
AcDbEntity
  8
1
 62
     7
100
AcDbMText
 10
39.99999998378712
 20
731.987697132996
 30
0.0
 40
3.5
 41
0.0
 71
     5
 72
     1
  1
2
  7
CONVERTER_11
 73
     1
 44
1.20048019207683
  0
MTEXT
  5
264
330
71
100
AcDbEntity
  8
1
 62
     7
100
AcDbMText
 10
-9.25000001621248
 20
731.987697132996
 30
0.0
 40
3.5
 41
0.0
 71
     5
 72
     1
  1
1
  7
CONVERTER_11
 73
     1
 44
1.20048019207683
  0
MTEXT
  5
265
330
71
100
AcDbEntity
  8
1
 62
     7
100
AcDbMText
 10
260.9999999837861
 20
756.9876971329961
 30
0.0
 40
3.5
 41
0.0
 71
     5
 72
     1
  1
D
  7
CONVERTER_11
 73
     1
 44
1.20048019207683
  0
MTEXT
  5
266
330
71
100
AcDbEntity
  8
1
 62
     7
100
AcDbMText
 10
260.9999999837861
 20
859.487697132998
 30
0.0
 40
3.5
 41
0.0
 71
     5
 72
     1
  1
B
  7
CONVERTER_11
 73
     1
 44
1.20048019207683
  0
MTEXT
  5
267
330
71
100
AcDbEntity
  8
1
 62
     7
100
AcDbMText
 10
260.9999999837861
 20
911.9876971329961
 30
0.0
 40
3.5
 41
0.0
 71
     5
 72
     1
  1
A
  7
CONVERTER_11
 73
     1
 44
1.20048019207683
  0
MTEXT
  5
268
330
71
100
AcDbEntity
  8
1
 62
     7
100
AcDbMText
 10
260.9999999837861
 20
809.487697132998
 30
0.0
 40
3.5
 41
0.0
 71
     5
 72
     1
  1
C
  7
CONVERTER_11
 73
     1
 44
1.20048019207683
  0
MTEXT
  5
269
330
71
100
AcDbEntity
  8
1
 62
     2
100
AcDbMText
 10
94.51718073198958
 20
747.237697132996
 30
0.0
 40
2.0
 41
0.0
 71
     5
 72
     1
  1
General Information\P- Simplified representation\P- Document excluded from change process\P- Linear dimensions [mm]
  7
CONVERTER_11
 73
     1
 44
1.20048019207683
  0
TEXT
  5
26A
330
71
100
AcDbEntity
  8
1
 62
     7
100
AcDbText
 10
166.8551954570368
 20
744.2876971329961
 30
0.0
 40
2.5
  1
3035357
 41
0.81
  7
CONVERTER_12
100
AcDbText
  0
MTEXT
  5
26B
330
71
100
AcDbEntity
  8
1
 62
     2
100
AcDbMText
 10
166.4551954570371
 20
750.4876971329961
 30
0.0
 40
1.8
 41
0.0
 71
     1
 72
     1
  1
ident.-No.
  7
CONVERTER_11
 73
     1
 44
1.20048019207683
  0
MTEXT
  5
26C
330
71
100
AcDbEntity
  8
1
 62
     2
100
AcDbMText
 10
250.6815917021098
 20
758.9876971329961
 30
0.0
 40
1.8
 41
0.0
 71
     1
 72
     1
  1
scale
  7
CONVERTER_11
 73
     1
 44
1.20048019207683
  0
MTEXT
  5
26E
330
71
100
AcDbEntity
  8
1
 62
     3
100
AcDbMText
 10
254.0407958429494
 20
752.7876971329962
 30
0.0
 40
2.5
 41
0.0
 71
     8
 72
     1
  1
1:1
  7
CONVERTER_13
 73
     1
 44
1.32052821128451
  0
TEXT
  5
26F
330
71
100
AcDbEntity
  8
1
 62
     7
100
AcDbText
 10
166.4551954570371
 20
752.7876971329961
 30
0.0
 40
2.5
  1
00644455
 41
0.81
  7
CONVERTER_12
100
AcDbText
  0
MTEXT
  5
271
330
71
100
AcDbEntity
  8
1
 62
     2
100
AcDbMText
 10
166.4551954570371
 20
758.9876971329961
 30
0.0
 40
1.8
 41
0.0
 71
     1
 72
     1
  1
document-No. / RI
  7
CONVERTER_14
 73
     1
 44
1.32052821128451
  0
TEXT
  5
272
330
71
100
AcDbEntity
  8
1
 62
     3
100
AcDbText
 10
194.2551954570371
 20
744.2876971329961
 30
0.0
 40
2.5
  1
TECDOC 2D_Productdrawing
 41
0.81
  7
CONVERTER_12
100
AcDbText
  0
MTEXT
  5
273
330
71
100
AcDbEntity
  8
1
 62
     2
100
AcDbMText
 10
194.2551954570371
 20
750.487697132996
 30
0.0
 40
1.8
 41
0.0
 71
     1
 72
     1
  1
document-type
  7
CONVERTER_11
 73
     1
 44
1.20048019207683
  0
MTEXT
  5
274
330
71
100
AcDbEntity
  8
1
 62
     2
100
AcDbMText
 10
224.08159170211
 20
758.987697132996
 30
0.0
 40
1.8
 41
0.0
 71
     1
 72
     1
  1
date
  7
CONVERTER_11
 73
     1
 44
1.32052821128451
  0
TEXT
  5
275
330
71
100
AcDbEntity
  8
1
 62
     3
100
AcDbText
 10
224.08159170211
 20
752.7876971329961
 30
0.0
 40
2.5
  1
20.03.2018
 41
0.81
  7
CONVERTER_12
100
AcDbText
  0
TEXT
  5
276
330
71
100
AcDbEntity
  8
1
 62
     7
100
AcDbText
 10
186.4851076760929
 20
752.7876971329961
 30
0.0
 40
2.5
  1
01
 41
0.81
  7
CONVERTER_12
100
AcDbText
  0
TEXT
  5
277
330
71
100
AcDbEntity
  8
1
 62
     7
100
AcDbText
 10
184.3287431790509
 20
752.7876971329961
 30
0.0
 40
2.5
  1
/
 41
0.9
  7
CONVERTER_11
100
AcDbText
  0
HATCH
  5
278
330
71
100
AcDbEntity
  8
1
  6
Continuous
 62
     2
100
AcDbHatch
 10
0.0
 20
0.0
 30
0.0
210
0.0
220
0.0
230
1.0
  2
_USER
 70
     0
 71
     1
 91
        1
 92
        1
 93
       12
 72
     1
 10
146.6226961699982
 20
745.1403876091867
 11
145.4299034678318
 21
745.1403876091867
 72
     1
 10
145.4299034678318
 20
745.1403876091867
 11
145.4299034678318
 21
746.2746597180305
 72
     1
 10
145.4299034678318
 20
746.2746597180305
 11
144.3802458899243
 21
746.2746597180305
 72
     1
 10
144.3802458899243
 20
746.2746597180305
 11
144.3802458899243
 21
745.1403876091867
 72
     1
 10
144.3802458899243
 20
745.1403876091867
 11
143.1874531877577
 21
745.1403876091867
 72
     1
 10
143.1874531877577
 20
745.1403876091867
 11
143.1874531877577
 21
748.1941971329979
 72
     1
 10
143.1874531877577
 20
748.1941971329979
 11
144.3802458899243
 21
748.1941971329979
 72
     1
 10
144.3802458899243
 20
748.1941971329979
 11
144.3802458899243
 21
747.1253637996633
 72
     1
 10
144.3802458899243
 20
747.1253637996633
 11
145.4299034678318
 21
747.1253637996633
 72
     1
 10
145.4299034678318
 20
747.1253637996633
 11
145.4299034678318
 21
748.1941971329979
 72
     1
 10
145.4299034678318
 20
748.1941971329979
 11
146.6226961699982
 21
748.1941971329979
 72
     1
 10
146.6226961699982
 20
748.1941971329979
 11
146.6226961699982
 21
745.1403876091867
 97
       12
330
1E5
330
1E6
330
1D0
330
1CF
330
1CE
330
1E2
330
1CD
330
1E3
330
1E4
330
1CC
330
1CB
330
1CA
 75
     1
 76
     0
 52
45.0
 41
0.1
 77
     0
 78
     1
 53
45.0
 43
0.0
 44
0.0
 45
-0.0707106781186548
 46
0.0707106781186548
 79
     0
 98
        1
 10
0.0
 20
0.0
  0
HATCH
  5
279
330
71
100
AcDbEntity
  8
1
  6
Continuous
 62
     2
100
AcDbHatch
 10
0.0
 20
0.0
 30
0.0
210
0.0
220
0.0
230
1.0
  2
_USER
 70
     0
 71
     1
 91
        1
 92
        1
 93
       12
 72
     1
 10
146.6226961699982
 20
745.1403876091867
 11
145.4299034678318
 21
745.1403876091867
 72
     1
 10
145.4299034678318
 20
745.1403876091867
 11
145.4299034678318
 21
746.2746597180305
 72
     1
 10
145.4299034678318
 20
746.2746597180305
 11
144.3802458899243
 21
746.2746597180305
 72
     1
 10
144.3802458899243
 20
746.2746597180305
 11
144.3802458899243
 21
745.1403876091867
 72
     1
 10
144.3802458899243
 20
745.1403876091867
 11
143.1874531877577
 21
745.1403876091867
 72
     1
 10
143.1874531877577
 20
745.1403876091867
 11
143.1874531877577
 21
748.1941971329979
 72
     1
 10
143.1874531877577
 20
748.1941971329979
 11
144.3802458899243
 21
748.1941971329979
 72
     1
 10
144.3802458899243
 20
748.1941971329979
 11
144.3802458899243
 21
747.1253637996633
 72
     1
 10
144.3802458899243
 20
747.1253637996633
 11
145.4299034678318
 21
747.1253637996633
 72
     1
 10
145.4299034678318
 20
747.1253637996633
 11
145.4299034678318
 21
748.1941971329979
 72
     1
 10
145.4299034678318
 20
748.1941971329979
 11
146.6226961699982
 21
748.1941971329979
 72
     1
 10
146.6226961699982
 20
748.1941971329979
 11
146.6226961699982
 21
745.1403876091867
 97
       12
330
1E5
330
1E6
330
1D0
330
1CF
330
1CE
330
1E2
330
1CD
330
1E3
330
1E4
330
1CC
330
1CB
330
1CA
 75
     1
 76
     0
 52
45.0
 41
0.1
 77
     0
 78
     1
 53
45.0
 43
0.0
 44
0.0
 45
-0.0707106781186548
 46
0.0707106781186548
 79
     0
 98
        1
 10
0.0
 20
0.0
  0
HATCH
  5
27A
330
71
100
AcDbEntity
  8
1
  6
Continuous
 62
     2
100
AcDbHatch
 10
0.0
 20
0.0
 30
0.0
210
0.0
220
0.0
230
1.0
  2
_USER
 70
     0
 71
     1
 91
        1
 92
        1
 93
       10
 72
     1
 10
148.8649955191865
 20
743.5262311466184
 11
147.6244911089336
 21
744.8350066568235
 72
     1
 10
147.6244911089336
 20
744.8350066568235
 11
146.431698406766
 21
744.8350066568235
 72
     1
 10
146.431698406766
 20
744.8350066568235
 11
146.431698406766
 21
741.7811971330125
 72
     1
 10
146.431698406766
 20
741.7811971330125
 11
147.6244911089336
 21
741.7811971330125
 72
     1
 10
147.6244911089336
 20
741.7811971330125
 11
147.6244911089336
 21
743.089972643217
 72
     1
 10
147.6244911089336
 20
743.089972643217
 11
148.8649955191865
 21
741.7811971330125
 72
     1
 10
148.8649955191865
 20
741.7811971330125
 11
150.0577882213529
 21
741.7811971330125
 72
     1
 10
150.0577882213529
 20
741.7811971330125
 11
150.0577882213529
 21
744.8350066568235
 72
     1
 10
150.0577882213529
 20
744.8350066568235
 11
148.8649955191865
 21
744.8350066568235
 72
     1
 10
148.8649955191865
 20
744.8350066568235
 11
148.8649955191865
 21
743.5262311466184
 97
       10
330
1F3
330
1C3
330
1C2
330
1C5
330
1EE
330
1EF
330
1C4
330
1F0
330
1F1
330
1F2
 75
     1
 76
     0
 52
45.0
 41
0.1
 77
     0
 78
     1
 53
45.0
 43
0.0
 44
0.0
 45
-0.0707106781186548
 46
0.0707106781186548
 79
     0
 98
        1
 10
0.0
 20
0.0
  0
HATCH
  5
27B
330
71
100
AcDbEntity
  8
1
  6
Continuous
 62
     2
100
AcDbHatch
 10
0.0
 20
0.0
 30
0.0
210
0.0
220
0.0
230
1.0
  2
_USER
 70
     0
 71
     1
 91
        1
 92
        1
 93
       10
 72
     1
 10
148.8649955191865
 20
743.5262311466184
 11
147.6244911089336
 21
744.8350066568235
 72
     1
 10
147.6244911089336
 20
744.8350066568235
 11
146.431698406766
 21
744.8350066568235
 72
     1
 10
146.431698406766
 20
744.8350066568235
 11
146.431698406766
 21
741.7811971330125
 72
     1
 10
146.431698406766
 20
741.7811971330125
 11
147.6244911089336
 21
741.7811971330125
 72
     1
 10
147.6244911089336
 20
741.7811971330125
 11
147.6244911089336
 21
743.089972643217
 72
     1
 10
147.6244911089336
 20
743.089972643217
 11
148.8649955191865
 21
741.7811971330125
 72
     1
 10
148.8649955191865
 20
741.7811971330125
 11
150.0577882213529
 21
741.7811971330125
 72
     1
 10
150.0577882213529
 20
741.7811971330125
 11
150.0577882213529
 21
744.8350066568235
 72
     1
 10
150.0577882213529
 20
744.8350066568235
 11
148.8649955191865
 21
744.8350066568235
 72
     1
 10
148.8649955191865
 20
744.8350066568235
 11
148.8649955191865
 21
743.5262311466184
 97
       10
330
1F3
330
1C3
330
1C2
330
1C5
330
1EE
330
1EF
330
1C4
330
1F0
330
1F1
330
1F2
 75
     1
 76
     0
 52
45.0
 41
0.1
 77
     0
 78
     1
 53
45.0
 43
0.0
 44
0.0
 45
-0.0707106781186548
 46
0.0707106781186548
 79
     0
 98
        1
 10
0.0
 20
0.0
  0
HATCH
  5
27C
330
71
100
AcDbEntity
  8
1
  6
Continuous
 62
     2
100
AcDbHatch
 10
0.0
 20
0.0
 30
0.0
210
0.0
220
0.0
230
1.0
  2
_USER
 70
     0
 71
     1
 91
        1
 92
        1
 93
       10
 72
     1
 10
154.1134343396062
 20
746.8854216227927
 11
152.8729299293522
 21
748.1941971329979
 72
     1
 10
152.8729299293522
 20
748.1941971329979
 11
151.6801372271857
 21
748.1941971329979
 72
     1
 10
151.6801372271857
 20
748.1941971329979
 11
151.6801372271857
 21
745.1403876091867
 72
     1
 10
151.6801372271857
 20
745.1403876091867
 11
152.8729299293522
 21
745.1403876091867
 72
     1
 10
152.8729299293522
 20
745.1403876091867
 11
152.8729299293522
 21
746.4491631193914
 72
     1
 10
152.8729299293522
 20
746.4491631193914
 11
154.1134343396062
 21
745.1403876091867
 72
     1
 10
154.1134343396062
 20
745.1403876091867
 11
155.3062270417728
 21
745.1403876091867
 72
     1
 10
155.3062270417728
 20
745.1403876091867
 11
155.3062270417728
 21
748.1941971329979
 72
     1
 10
155.3062270417728
 20
748.1941971329979
 11
154.1134343396062
 21
748.1941971329979
 72
     1
 10
154.1134343396062
 20
748.1941971329979
 11
154.1134343396062
 21
746.8854216227927
 97
       10
330
1F8
330
1C0
330
1BF
330
1F9
330
1BE
330
1F4
330
1F5
330
1F6
330
1F7
330
1C1
 75
     1
 76
     0
 52
45.0
 41
0.1
 77
     0
 78
     1
 53
45.0
 43
0.0
 44
0.0
 45
-0.0707106781186548
 46
0.0707106781186548
 79
     0
 98
        1
 10
0.0
 20
0.0
  0
HATCH
  5
27D
330
71
100
AcDbEntity
  8
1
  6
Continuous
 62
     2
100
AcDbHatch
 10
0.0
 20
0.0
 30
0.0
210
0.0
220
0.0
230
1.0
  2
_USER
 70
     0
 71
     1
 91
        1
 92
        1
 93
       10
 72
     1
 10
154.1134343396062
 20
746.8854216227927
 11
152.8729299293522
 21
748.1941971329979
 72
     1
 10
152.8729299293522
 20
748.1941971329979
 11
151.6801372271857
 21
748.1941971329979
 72
     1
 10
151.6801372271857
 20
748.1941971329979
 11
151.6801372271857
 21
745.1403876091867
 72
     1
 10
151.6801372271857
 20
745.1403876091867
 11
152.8729299293522
 21
745.1403876091867
 72
     1
 10
152.8729299293522
 20
745.1403876091867
 11
152.8729299293522
 21
746.4491631193914
 72
     1
 10
152.8729299293522
 20
746.4491631193914
 11
154.1134343396062
 21
745.1403876091867
 72
     1
 10
154.1134343396062
 20
745.1403876091867
 11
155.3062270417728
 21
745.1403876091867
 72
     1
 10
155.3062270417728
 20
745.1403876091867
 11
155.3062270417728
 21
748.1941971329979
 72
     1
 10
155.3062270417728
 20
748.1941971329979
 11
154.1134343396062
 21
748.1941971329979
 72
     1
 10
154.1134343396062
 20
748.1941971329979
 11
154.1134343396062
 21
746.8854216227927
 97
       10
330
1F8
330
1C0
330
1BF
330
1F9
330
1BE
330
1F4
330
1F5
330
1F6
330
1F7
330
1C1
 75
     1
 76
     0
 52
45.0
 41
0.1
 77
     0
 78
     1
 53
45.0
 43
0.0
 44
0.0
 45
-0.0707106781186548
 46
0.0707106781186548
 79
     0
 98
        1
 10
0.0
 20
0.0
  0
HATCH
  5
27E
330
71
100
AcDbEntity
  8
1
  6
Continuous
 62
     2
100
AcDbHatch
 10
0.0
 20
0.0
 30
0.0
210
0.0
220
0.0
230
1.0
  2
_USER
 70
     0
 71
     1
 91
        1
 92
        1
 93
        8
 72
     1
 10
153.0159141227267
 20
744.8350066568235
 11
150.2009233456131
 21
744.8350066568235
 72
     1
 10
150.2009233456131
 20
744.8350066568235
 11
150.2009233456131
 21
744.0497413507
 72
     1
 10
150.2009233456131
 20
744.0497413507
 11
151.0120223830877
 21
744.0497413507
 72
     1
 10
151.0120223830877
 20
744.0497413507
 11
151.0120223830877
 21
741.7811971330125
 72
     1
 10
151.0120223830877
 20
741.7811971330125
 11
152.2048150852542
 21
741.7811971330125
 72
     1
 10
152.2048150852542
 20
741.7811971330125
 11
152.2048150852542
 21
744.0497413507
 72
     1
 10
152.2048150852542
 20
744.0497413507
 11
153.0159141227267
 21
744.0497413507
 72
     1
 10
153.0159141227267
 20
744.0497413507
 11
153.0159141227267
 21
744.8350066568235
 97
        8
330
1BA
330
1FA
330
1B9
330
1FB
330
1FC
330
1BD
330
1BC
330
1BB
 75
     1
 76
     0
 52
45.0
 41
0.1
 77
     0
 78
     1
 53
45.0
 43
0.0
 44
0.0
 45
-0.0707106781186548
 46
0.0707106781186548
 79
     0
 98
        1
 10
0.0
 20
0.0
  0
HATCH
  5
27F
330
71
100
AcDbEntity
  8
1
  6
Continuous
 62
     2
100
AcDbHatch
 10
0.0
 20
0.0
 30
0.0
210
0.0
220
0.0
230
1.0
  2
_USER
 70
     0
 71
     1
 91
        1
 92
        1
 93
        8
 72
     1
 10
153.0159141227267
 20
744.8350066568235
 11
150.2009233456131
 21
744.8350066568235
 72
     1
 10
150.2009233456131
 20
744.8350066568235
 11
150.2009233456131
 21
744.0497413507
 72
     1
 10
150.2009233456131
 20
744.0497413507
 11
151.0120223830877
 21
744.0497413507
 72
     1
 10
151.0120223830877
 20
744.0497413507
 11
151.0120223830877
 21
741.7811971330125
 72
     1
 10
151.0120223830877
 20
741.7811971330125
 11
152.2048150852542
 21
741.7811971330125
 72
     1
 10
152.2048150852542
 20
741.7811971330125
 11
152.2048150852542
 21
744.0497413507
 72
     1
 10
152.2048150852542
 20
744.0497413507
 11
153.0159141227267
 21
744.0497413507
 72
     1
 10
153.0159141227267
 20
744.0497413507
 11
153.0159141227267
 21
744.8350066568235
 97
        8
330
1BA
330
1FA
330
1B9
330
1FB
330
1FC
330
1BD
330
1BC
330
1BB
 75
     1
 76
     0
 52
45.0
 41
0.1
 77
     0
 78
     1
 53
45.0
 43
0.0
 44
0.0
 45
-0.0707106781186548
 46
0.0707106781186548
 79
     0
 98
        1
 10
0.0
 20
0.0
  0
HATCH
  5
280
330
71
100
AcDbEntity
  8
1
  6
Continuous
 62
     2
100
AcDbHatch
 10
0.0
 20
0.0
 30
0.0
210
0.0
220
0.0
230
1.0
  2
_USER
 70
     0
 71
     1
 91
        2
 92
        1
 93
        8
 72
     1
 10
155.1543415786737
 20
741.7811971330125
 11
154.9428615251979
 21
742.3221576772303
 72
     1
 10
154.9428615251979
 20
742.3221576772303
 11
153.8104199485241
 21
742.3221576772303
 72
     1
 10
153.8104199485241
 20
742.3221576772303
 11
153.5989398950483
 21
741.7811971330125
 72
     1
 10
153.5989398950483
 20
741.7811971330125
 11
152.3584354847953
 21
741.7811971330125
 72
     1
 10
152.3584354847953
 20
741.7811971330125
 11
153.7563885317346
 21
744.8350066568235
 72
     1
 10
153.7563885317346
 20
744.8350066568235
 11
154.9968929419873
 21
744.8350066568235
 72
     1
 10
154.9968929419873
 20
744.8350066568235
 11
156.3948459889276
 21
741.7811971330125
 72
     1
 10
156.3948459889276
 20
741.7811971330125
 11
155.1543415786737
 21
741.7811971330125
 97
        8
330
1FE
330
1FF
330
1B6
330
200
330
1B5
330
1B8
330
1FD
330
1B7
 92
       16
 93
        3
 72
     1
 10
154.0764754996691
 20
743.0027209425369
 11
154.3766407368615
 21
743.7705359085236
 72
     1
 10
154.3766407368615
 20
743.7705359085236
 11
154.6768059740516
 21
743.0027209425369
 72
     1
 10
154.6768059740516
 20
743.0027209425369
 11
154.0764754996691
 21
743.0027209425369
 97
        3
330
1B4
330
202
330
201
 75
     1
 76
     0
 52
45.0
 41
0.1
 77
     0
 78
     1
 53
45.0
 43
0.0
 44
0.0
 45
-0.0707106781186548
 46
0.0707106781186548
 79
     0
 98
        1
 10
0.0
 20
0.0
  0
HATCH
  5
281
330
71
100
AcDbEntity
  8
1
  6
Continuous
 62
     2
100
AcDbHatch
 10
0.0
 20
0.0
 30
0.0
210
0.0
220
0.0
230
1.0
  2
_USER
 70
     0
 71
     1
 91
        2
 92
        1
 93
        8
 72
     1
 10
155.1543415786737
 20
741.7811971330125
 11
154.9428615251979
 21
742.3221576772303
 72
     1
 10
154.9428615251979
 20
742.3221576772303
 11
153.8104199485241
 21
742.3221576772303
 72
     1
 10
153.8104199485241
 20
742.3221576772303
 11
153.5989398950483
 21
741.7811971330125
 72
     1
 10
153.5989398950483
 20
741.7811971330125
 11
152.3584354847953
 21
741.7811971330125
 72
     1
 10
152.3584354847953
 20
741.7811971330125
 11
153.7563885317346
 21
744.8350066568235
 72
     1
 10
153.7563885317346
 20
744.8350066568235
 11
154.9968929419873
 21
744.8350066568235
 72
     1
 10
154.9968929419873
 20
744.8350066568235
 11
156.3948459889276
 21
741.7811971330125
 72
     1
 10
156.3948459889276
 20
741.7811971330125
 11
155.1543415786737
 21
741.7811971330125
 97
        8
330
1FE
330
1FF
330
1B6
330
200
330
1B5
330
1B8
330
1FD
330
1B7
 92
       16
 93
        3
 72
     1
 10
154.0764754996691
 20
743.0027209425369
 11
154.3766407368615
 21
743.7705359085236
 72
     1
 10
154.3766407368615
 20
743.7705359085236
 11
154.6768059740516
 21
743.0027209425369
 72
     1
 10
154.6768059740516
 20
743.0027209425369
 11
154.0764754996691
 21
743.0027209425369
 97
        3
330
1B4
330
202
330
201
 75
     1
 76
     0
 52
45.0
 41
0.1
 77
     0
 78
     1
 53
45.0
 43
0.0
 44
0.0
 45
-0.0707106781186548
 46
0.0707106781186548
 79
     0
 98
        1
 10
0.0
 20
0.0
  0
HATCH
  5
282
330
71
100
AcDbEntity
  8
1
  6
Continuous
 62
     2
100
AcDbHatch
 10
0.0
 20
0.0
 30
0.0
210
0.0
220
0.0
230
1.0
  2
_USER
 70
     0
 71
     1
 91
        1
 92
        1
 93
        4
 72
     1
 10
156.7852899924596
 20
745.1403876091867
 11
155.5447855822067
 21
745.1403876091867
 72
     1
 10
155.5447855822067
 20
745.1403876091867
 11
155.5447855822067
 21
748.1941971329979
 72
     1
 10
155.5447855822067
 20
748.1941971329979
 11
156.7852899924596
 21
748.1941971329979
 72
     1
 10
156.7852899924596
 20
748.1941971329979
 11
156.7852899924596
 21
745.1403876091867
 97
        4
330
1B1
330
1B3
330
203
330
1B2
 75
     1
 76
     0
 52
45.0
 41
0.1
 77
     0
 78
     1
 53
45.0
 43
0.0
 44
0.0
 45
-0.0707106781186548
 46
0.0707106781186548
 79
     0
 98
        1
 10
0.0
 20
0.0
  0
HATCH
  5
283
330
71
100
AcDbEntity
  8
1
  6
Continuous
 62
     2
100
AcDbHatch
 10
0.0
 20
0.0
 30
0.0
210
0.0
220
0.0
230
1.0
  2
_USER
 70
     0
 71
     1
 91
        1
 92
        1
 93
        4
 72
     1
 10
156.7852899924596
 20
745.1403876091867
 11
155.5447855822067
 21
745.1403876091867
 72
     1
 10
155.5447855822067
 20
745.1403876091867
 11
155.5447855822067
 21
748.1941971329979
 72
     1
 10
155.5447855822067
 20
748.1941971329979
 11
156.7852899924596
 21
748.1941971329979
 72
     1
 10
156.7852899924596
 20
748.1941971329979
 11
156.7852899924596
 21
745.1403876091867
 97
        4
330
1B1
330
1B3
330
203
330
1B2
 75
     1
 76
     0
 52
45.0
 41
0.1
 77
     0
 78
     1
 53
45.0
 43
0.0
 44
0.0
 45
-0.0707106781186548
 46
0.0707106781186548
 79
     0
 98
        1
 10
0.0
 20
0.0
  0
HATCH
  5
284
330
71
100
AcDbEntity
  8
1
  6
Continuous
 62
     2
100
AcDbHatch
 10
0.0
 20
0.0
 30
0.0
210
0.0
220
0.0
230
1.0
  2
_USER
 70
     0
 71
     1
 91
        1
 92
        1
 93
       12
 72
     1
 10
161.0077761581304
 20
748.1941971329979
 11
159.7052465273639
 21
746.7212466029617
 72
     1
 10
159.7052465273639
 20
746.7212466029617
 11
161.1031995743042
 21
745.1403876091867
 72
     1
 10
161.1031995743042
 20
745.1403876091867
 11
159.7004753565559
 21
745.1403876091867
 72
     1
 10
159.7004753565559
 20
745.1403876091867
 11
159.0038844184904
 21
745.9281193944804
 72
     1
 10
159.0038844184904
 20
745.9281193944804
 11
158.3072934804247
 21
745.1403876091867
 72
     1
 10
158.3072934804247
 20
745.1403876091867
 11
156.9045692626765
 21
745.1403876091867
 72
     1
 10
156.9045692626765
 20
745.1403876091867
 11
158.3025223096168
 21
746.7212466029617
 72
     1
 10
158.3025223096168
 20
746.7212466029617
 11
156.9999926788493
 21
748.1941971329979
 72
     1
 10
156.9999926788493
 20
748.1941971329979
 11
158.4027168965986
 21
748.1941971329979
 72
     1
 10
158.4027168965986
 20
748.1941971329979
 11
159.0038844184904
 21
747.5143738114424
 72
     1
 10
159.0038844184904
 20
747.5143738114424
 11
159.6050519403832
 21
748.1941971329979
 72
     1
 10
159.6050519403832
 20
748.1941971329979
 11
161.0077761581304
 21
748.1941971329979
 97
       12
330
1AC
330
1AB
330
1AA
330
207
330
208
330
204
330
205
330
1B0
330
1AF
330
1AE
330
1AD
330
206
 75
     1
 76
     0
 52
45.0
 41
0.1
 77
     0
 78
     1
 53
45.0
 43
0.0
 44
0.0
 45
-0.0707106781186548
 46
0.0707106781186548
 79
     0
 98
        1
 10
0.0
 20
0.0
  0
HATCH
  5
285
330
71
100
AcDbEntity
  8
1
  6
Continuous
 62
     2
100
AcDbHatch
 10
0.0
 20
0.0
 30
0.0
210
0.0
220
0.0
230
1.0
  2
_USER
 70
     0
 71
     1
 91
        1
 92
        1
 93
       12
 72
     1
 10
161.0077761581304
 20
748.1941971329979
 11
159.7052465273639
 21
746.7212466029617
 72
     1
 10
159.7052465273639
 20
746.7212466029617
 11
161.1031995743042
 21
745.1403876091867
 72
     1
 10
161.1031995743042
 20
745.1403876091867
 11
159.7004753565559
 21
745.1403876091867
 72
     1
 10
159.7004753565559
 20
745.1403876091867
 11
159.0038844184904
 21
745.9281193944804
 72
     1
 10
159.0038844184904
 20
745.9281193944804
 11
158.3072934804247
 21
745.1403876091867
 72
     1
 10
158.3072934804247
 20
745.1403876091867
 11
156.9045692626765
 21
745.1403876091867
 72
     1
 10
156.9045692626765
 20
745.1403876091867
 11
158.3025223096168
 21
746.7212466029617
 72
     1
 10
158.3025223096168
 20
746.7212466029617
 11
156.9999926788493
 21
748.1941971329979
 72
     1
 10
156.9999926788493
 20
748.1941971329979
 11
158.4027168965986
 21
748.1941971329979
 72
     1
 10
158.4027168965986
 20
748.1941971329979
 11
159.0038844184904
 21
747.5143738114424
 72
     1
 10
159.0038844184904
 20
747.5143738114424
 11
159.6050519403832
 21
748.1941971329979
 72
     1
 10
159.6050519403832
 20
748.1941971329979
 11
161.0077761581304
 21
748.1941971329979
 97
       12
330
1AC
330
1AB
330
1AA
330
207
330
208
330
204
330
205
330
1B0
330
1AF
330
1AE
330
1AD
330
206
 75
     1
 76
     0
 52
45.0
 41
0.1
 77
     0
 78
     1
 53
45.0
 43
0.0
 44
0.0
 45
-0.0707106781186548
 46
0.0707106781186548
 79
     0
 98
        1
 10
0.0
 20
0.0
  0
HATCH
  5
286
330
71
100
AcDbEntity
  8
1
  6
Continuous
 62
     2
100
AcDbHatch
 10
0.0
 20
0.0
 30
0.0
210
0.0
220
0.0
230
1.0
  2
_USER
 70
     0
 71
     1
 91
        2
 92
        1
 93
        6
 72
     1
 10
141.9900407439844
 20
746.0834658503305
 11
141.2312731562041
 21
746.0834658503305
 72
     1
 10
141.2312731562041
 20
746.0834658503305
 11
141.2312731562041
 21
745.1403876091867
 72
     1
 10
141.2312731562041
 20
745.1403876091867
 11
139.99076874595
 21
745.1403876091867
 72
     1
 10
139.99076874595
 20
745.1403876091867
 11
139.99076874595
 21
748.1941971329979
 72
     1
 10
139.99076874595
 20
748.1941971329979
 11
141.9900407439844
 21
748.1941971329979
 72
     2
 10
141.9900407439844
 20
747.1388314916642
 40
1.055365641333651
 50
270.0
 51
450.0
 73
     0
 97
        6
330
1D4
330
1D3
330
1E0
330
1DF
330
1D5
330
225
 92
       16
 93
        4
 72
     2
 10
141.548568217746
 20
747.1782274628868
 40
0.3528638246712035
 50
270.0
 51
450.0
 73
     1
 72
     1
 10
141.548568217746
 20
747.5310912875578
 11
141.2312731562041
 21
747.5310912875578
 72
     1
 10
141.2312731562041
 20
747.5310912875578
 11
141.2312731562041
 21
746.8253636382155
 72
     1
 10
141.2312731562041
 20
746.8253636382155
 11
141.548568217746
 21
746.8253636382155
 97
        4
330
239
330
1D1
330
1E1
330
1D2
 75
     1
 76
     0
 52
45.0
 41
0.1
 77
     0
 78
     1
 53
45.0
 43
0.0
 44
0.0
 45
-0.0707106781186548
 46
0.0707106781186548
 79
     0
 98
        1
 10
0.0
 20
0.0
  0
HATCH
  5
287
330
71
100
AcDbEntity
  8
1
  6
Continuous
 62
     2
100
AcDbHatch
 10
0.0
 20
0.0
 30
0.0
210
0.0
220
0.0
230
1.0
  2
_USER
 70
     0
 71
     1
 91
        2
 92
        1
 93
        6
 72
     1
 10
141.9900407439844
 20
746.0834658503305
 11
141.2312731562041
 21
746.0834658503305
 72
     1
 10
141.2312731562041
 20
746.0834658503305
 11
141.2312731562041
 21
745.1403876091867
 72
     1
 10
141.2312731562041
 20
745.1403876091867
 11
139.99076874595
 21
745.1403876091867
 72
     1
 10
139.99076874595
 20
745.1403876091867
 11
139.99076874595
 21
748.1941971329979
 72
     1
 10
139.99076874595
 20
748.1941971329979
 11
141.9900407439844
 21
748.1941971329979
 72
     2
 10
141.9900407439844
 20
747.1388314916642
 40
1.055365641333651
 50
270.0
 51
450.0
 73
     0
 97
        6
330
1D4
330
1D3
330
1E0
330
1DF
330
1D5
330
225
 92
       16
 93
        4
 72
     2
 10
141.548568217746
 20
747.1782274628868
 40
0.3528638246712035
 50
270.0
 51
450.0
 73
     1
 72
     1
 10
141.548568217746
 20
747.5310912875578
 11
141.2312731562041
 21
747.5310912875578
 72
     1
 10
141.2312731562041
 20
747.5310912875578
 11
141.2312731562041
 21
746.8253636382155
 72
     1
 10
141.2312731562041
 20
746.8253636382155
 11
141.548568217746
 21
746.8253636382155
 97
        4
330
239
330
1D1
330
1E1
330
1D2
 75
     1
 76
     0
 52
45.0
 41
0.1
 77
     0
 78
     1
 53
45.0
 43
0.0
 44
0.0
 45
-0.0707106781186548
 46
0.0707106781186548
 79
     0
 98
        1
 10
0.0
 20
0.0
  0
HATCH
  5
288
330
71
100
AcDbEntity
  8
1
  6
Continuous
 62
     2
100
AcDbHatch
 10
0.0
 20
0.0
 30
0.0
210
0.0
220
0.0
230
1.0
  2
_USER
 70
     0
 71
     1
 91
        2
 92
        1
 93
        4
 72
     2
 10
144.5465834923435
 20
742.769526884615
 40
2.065479772208543
 50
62.451851824306
 51
117.5481481756667
 73
     1
 72
     2
 10
144.2656436005102
 20
743.3081018949177
 40
1.458034083651465
 50
117.548148175663
 51
242.451851824337
 73
     1
 72
     2
 10
144.5465834923435
 20
743.846676905221
 40
2.065479772208433
 50
242.4518518243391
 51
297.5481481756882
 73
     1
 72
     2
 10
144.8275233841768
 20
743.3081018949177
 40
1.458034083651977
 50
297.5481481757016
 51
422.4518518242985
 73
     1
 97
        4
330
231
330
230
330
232
330
22F
 92
       16
 93
        4
 72
     2
 10
144.3468434559971
 20
743.3081018949177
 40
0.7717997786797298
 50
321.8795802028384
 51
398.120419797155
 73
     1
 72
     2
 10
144.5465834923435
 20
743.4648330730382
 40
0.5179085730133349
 50
38.12041979715197
 51
141.8795802028538
 73
     1
 72
     2
 10
144.7463235286896
 20
743.3081018949177
 40
0.7717997786794808
 50
141.8795802028346
 51
218.120419797172
 73
     1
 72
     2
 10
144.5465834923435
 20
743.1513707167977
 40
0.5179085730137529
 50
218.1204197971956
 51
321.8795802027985
 73
     1
 97
        4
330
24D
330
24A
330
24B
330
24C
 75
     1
 76
     0
 52
45.0
 41
0.1
 77
     0
 78
     1
 53
45.0
 43
0.0
 44
0.0
 45
-0.0707106781186548
 46
0.0707106781186548
 79
     0
 98
        1
 10
0.0
 20
0.0
  0
HATCH
  5
289
330
71
100
AcDbEntity
  8
1
  6
Continuous
 62
     2
100
AcDbHatch
 10
0.0
 20
0.0
 30
0.0
210
0.0
220
0.0
230
1.0
  2
_USER
 70
     0
 71
     1
 91
        2
 92
        1
 93
        4
 72
     2
 10
144.5465834923435
 20
742.769526884615
 40
2.065479772208543
 50
62.451851824306
 51
117.5481481756667
 73
     1
 72
     2
 10
144.2656436005102
 20
743.3081018949177
 40
1.458034083651465
 50
117.548148175663
 51
242.451851824337
 73
     1
 72
     2
 10
144.5465834923435
 20
743.846676905221
 40
2.065479772208433
 50
242.4518518243391
 51
297.5481481756882
 73
     1
 72
     2
 10
144.8275233841768
 20
743.3081018949177
 40
1.458034083651977
 50
297.5481481757016
 51
422.4518518242985
 73
     1
 97
        4
330
231
330
230
330
232
330
22F
 92
       16
 93
        4
 72
     2
 10
144.3468434559971
 20
743.3081018949177
 40
0.7717997786797298
 50
321.8795802028384
 51
398.120419797155
 73
     1
 72
     2
 10
144.5465834923435
 20
743.4648330730382
 40
0.5179085730133349
 50
38.12041979715197
 51
141.8795802028538
 73
     1
 72
     2
 10
144.7463235286896
 20
743.3081018949177
 40
0.7717997786794808
 50
141.8795802028346
 51
218.120419797172
 73
     1
 72
     2
 10
144.5465834923435
 20
743.1513707167977
 40
0.5179085730137529
 50
218.1204197971956
 51
321.8795802027985
 73
     1
 97
        4
330
24D
330
24A
330
24B
330
24C
 75
     1
 76
     0
 52
45.0
 41
0.1
 77
     0
 78
     1
 53
45.0
 43
0.0
 44
0.0
 45
-0.0707106781186548
 46
0.0707106781186548
 79
     0
 98
        1
 10
0.0
 20
0.0
  0
HATCH
  5
28A
330
71
100
AcDbEntity
  8
1
  6
Continuous
 62
     2
100
AcDbHatch
 10
0.0
 20
0.0
 30
0.0
210
0.0
220
0.0
230
1.0
  2
_USER
 70
     0
 71
     1
 91
        2
 92
        1
 93
       12
 72
     1
 10
151.4415786867528
 20
747.4961835275549
 11
150.1056508603251
 21
747.4961835275549
 72
     1
 10
150.1056508603251
 20
747.4961835275549
 11
150.1056508603251
 21
747.0162991738132
 72
     1
 10
150.1056508603251
 20
747.0162991738132
 11
151.4415786867528
 21
747.0162991738132
 72
     1
 10
151.4415786867528
 20
747.0162991738132
 11
151.4415786867528
 21
746.3182855683709
 72
     1
 10
151.4415786867528
 20
746.3182855683709
 11
150.1056508603251
 21
746.3182855683709
 72
     1
 10
150.1056508603251
 20
746.3182855683709
 11
150.1056508603251
 21
745.8384012146292
 72
     1
 10
150.1056508603251
 20
745.8384012146292
 11
151.4415786867528
 21
745.8384012146292
 72
     1
 10
151.4415786867528
 20
745.8384012146292
 11
151.4415786867528
 21
745.1403876091867
 72
     1
 10
151.4415786867528
 20
745.1403876091867
 11
148.2912589629718
 21
745.1403876091867
 72
     2
 10
148.2912589629718
 20
746.667292371092
 40
1.526904761905939
 50
90.0
 51
270.0
 73
     0
 72
     1
 10
148.2912589629718
 20
748.1941971329979
 11
151.4415786867528
 21
748.1941971329979
 72
     1
 10
151.4415786867528
 20
748.1941971329979
 11
151.4415786867528
 21
747.4961835275549
 97
       12
330
1E8
330
23A
330
1E9
330
1EA
330
1EB
330
1EC
330
1C9
330
1C8
330
1C7
330
1C6
330
1ED
330
1E7
 92
       16
 93
        4
 72
     2
 10
148.507530973137
 20
746.8240235492125
 40
0.5179085730135616
 50
38.12041979714829
 51
141.879580202844
 73
     1
 72
     2
 10
148.7072710094833
 20
746.667292371092
 40
0.7717997786797075
 50
141.8795802028371
 51
218.1204197971562
 73
     1
 72
     2
 10
148.507530973137
 20
746.5105611929716
 40
0.5179085730134722
 50
218.120419797156
 51
321.8795802028517
 73
     1
 72
     2
 10
148.3077909367908
 20
746.667292371092
 40
0.7717997786796373
 50
321.8795802028437
 51
398.1204197971629
 73
     1
 97
        4
330
234
330
233
330
22E
330
22D
 75
     1
 76
     0
 52
45.0
 41
0.1
 77
     0
 78
     1
 53
45.0
 43
0.0
 44
0.0
 45
-0.0707106781186548
 46
0.0707106781186548
 79
     0
 98
        1
 10
0.0
 20
0.0
  0
HATCH
  5
28B
330
71
100
AcDbEntity
  8
1
  6
Continuous
 62
     2
100
AcDbHatch
 10
0.0
 20
0.0
 30
0.0
210
0.0
220
0.0
230
1.0
  2
_USER
 70
     0
 71
     1
 91
        2
 92
        1
 93
       12
 72
     1
 10
151.4415786867528
 20
747.4961835275549
 11
150.1056508603251
 21
747.4961835275549
 72
     1
 10
150.1056508603251
 20
747.4961835275549
 11
150.1056508603251
 21
747.0162991738132
 72
     1
 10
150.1056508603251
 20
747.0162991738132
 11
151.4415786867528
 21
747.0162991738132
 72
     1
 10
151.4415786867528
 20
747.0162991738132
 11
151.4415786867528
 21
746.3182855683709
 72
     1
 10
151.4415786867528
 20
746.3182855683709
 11
150.1056508603251
 21
746.3182855683709
 72
     1
 10
150.1056508603251
 20
746.3182855683709
 11
150.1056508603251
 21
745.8384012146292
 72
     1
 10
150.1056508603251
 20
745.8384012146292
 11
151.4415786867528
 21
745.8384012146292
 72
     1
 10
151.4415786867528
 20
745.8384012146292
 11
151.4415786867528
 21
745.1403876091867
 72
     1
 10
151.4415786867528
 20
745.1403876091867
 11
148.2912589629718
 21
745.1403876091867
 72
     2
 10
148.2912589629718
 20
746.667292371092
 40
1.526904761905939
 50
90.0
 51
270.0
 73
     0
 72
     1
 10
148.2912589629718
 20
748.1941971329979
 11
151.4415786867528
 21
748.1941971329979
 72
     1
 10
151.4415786867528
 20
748.1941971329979
 11
151.4415786867528
 21
747.4961835275549
 97
       12
330
1E8
330
23A
330
1E9
330
1EA
330
1EB
330
1EC
330
1C9
330
1C8
330
1C7
330
1C6
330
1ED
330
1E7
 92
       16
 93
        4
 72
     2
 10
148.507530973137
 20
746.8240235492125
 40
0.5179085730135616
 50
38.12041979714829
 51
141.879580202844
 73
     1
 72
     2
 10
148.7072710094833
 20
746.667292371092
 40
0.7717997786797075
 50
141.8795802028371
 51
218.1204197971562
 73
     1
 72
     2
 10
148.507530973137
 20
746.5105611929716
 40
0.5179085730134722
 50
218.120419797156
 51
321.8795802028517
 73
     1
 72
     2
 10
148.3077909367908
 20
746.667292371092
 40
0.7717997786796373
 50
321.8795802028437
 51
398.1204197971629
 73
     1
 97
        4
330
234
330
233
330
22E
330
22D
 75
     1
 76
     0
 52
45.0
 41
0.1
 77
     0
 78
     1
 53
45.0
 43
0.0
 44
0.0
 45
-0.0707106781186548
 46
0.0707106781186548
 79
     0
 98
        1
 10
0.0
 20
0.0
  0
HATCH
  5
28C
330
71
100
AcDbEntity
  8
1
  6
Continuous
 62
     2
100
AcDbHatch
 10
0.0
 20
0.0
 30
0.0
210
0.0
220
0.0
230
1.0
  2
_USER
 70
     0
 71
     1
 91
        4
 92
        1
 93
        8
 72
     1
 10
139.5136516650832
 20
747.7699525175959
 11
139.5136516650832
 21
742.2054417483957
 72
     2
 10
139.0894070496993
 20
742.2054417483957
 40
0.4242446153832589
 50
0.0
 51
90.0
 73
     0
 72
     1
 10
139.0894070496993
 20
741.7811971330125
 11
133.6160949589825
 21
741.7811971330125
 72
     2
 10
133.6160949589825
 20
742.2054417483957
 40
0.4242446153828041
 50
90.0
 51
180.0
 73
     0
 72
     1
 10
133.1918503435997
 20
742.2054417483957
 11
133.1918503435997
 21
747.7699525175959
 72
     2
 10
133.6160949589825
 20
747.7699525175959
 40
0.4242446153838273
 50
180.0
 51
270.0
 73
     0
 72
     1
 10
133.6160949589825
 20
748.1941971329798
 11
139.0894070496993
 21
748.1941971329798
 72
     2
 10
139.0894070496993
 20
747.7699525175959
 40
0.4242446153838841
 50
270.0
 51
360.0
 73
     0
 97
        8
330
1DC
330
22A
330
1DD
330
235
330
1DA
330
22C
330
1DB
330
22B
 92
       16
 93
        1
 72
     2
 10
136.2356806095
 20
745.4510702892404
 40
0.470978932778479
 50
0.0
 51
360.0
 73
     1
 97
        1
330
250
 92
       16
 93
        8
 72
     2
 10
136.7855383222607
 20
744.341928689272
 40
0.3157169230765842
 50
115.3740086783474
 51
180.0
 73
     1
 72
     1
 10
136.4698213991839
 20
744.341928689272
 11
136.4698213991839
 21
743.760077282577
 72
     2
 10
136.7855383222607
 20
743.760077282577
 40
0.315716923076792
 50
180.0
 51
269.8110329574542
 73
     1
 72
     2
 10
136.7911544575707
 20
745.4629122301459
 40
2.018561131933266
 50
269.8110329575858
 51
450.1889670424142
 73
     1
 72
     2
 10
136.7855383222607
 20
747.165747177715
 40
0.3157169230760142
 50
90.18896704254595
 51
180.0
 73
     1
 72
     1
 10
136.4698213991839
 20
747.165747177715
 11
136.4698213991839
 21
746.5602118892082
 72
     2
 10
136.7855383222607
 20
746.5602118892082
 40
0.315716923076792
 50
180.0
 51
244.6259913216437
 73
     1
 72
     2
 10
136.2594956241728
 20
745.4510702892404
 40
0.9118481501444333
 50
295.3740086781925
 51
424.6259913218228
 73
     0
 97
        8
330
242
330
1A3
330
23F
330
240
330
21E
330
1A2
330
241
330
21D
 92
       16
 93
       12
 72
     2
 10
134.209989635729
 20
742.809469611646
 40
0.3157169230756836
 50
180.0
 51
270.0
 73
     1
 72
     1
 10
134.209989635729
 20
742.4937526885693
 11
135.6858228967386
 21
742.4937526885693
 72
     2
 10
135.6858228967386
 20
742.809469611646
 40
0.3157169230767067
 50
270.0
 51
360.0
 73
     1
 72
     1
 10
136.0015398198152
 20
742.809469611646
 11
136.0015398198152
 21
744.3402405431776
 72
     2
 10
135.6858228967386
 20
744.3402405431776
 40
0.315716923076593
 50
0.0
 51
64.80558935146468
 73
     1
 72
     2
 10
136.2084073443136
 20
745.4510702892404
 40
0.9118975235575889
 50
115.1944106485138
 51
244.805589351471
 73
     0
 72
     2
 10
135.6858228967386
 20
746.5619000353026
 40
0.3157169230761717
 50
295.1944106485354
 51
360.0
 73
     1
 72
     1
 10
136.0015398198152
 20
746.5619000353026
 11
136.0015398198152
 21
747.1659246543632
 72
     2
 10
135.6858228967386
 20
747.1659246543632
 40
0.315716923076593
 50
0.0
 51
90.0
 73
     1
 72
     1
 10
135.6858228967386
 20
747.4816415774393
 11
134.209989635729
 21
747.4816415774393
 72
     2
 10
134.209989635729
 20
747.1659246543632
 40
0.3157169230761383
 50
90.0
 51
180.0
 73
     1
 72
     1
 10
133.8942727126533
 20
747.1659246543632
 11
133.8942727126533
 21
742.809469611646
 97
       12
330
226
330
1DE
330
229
330
1D9
330
236
330
237
330
228
330
1D8
330
227
330
1D7
330
238
330
1D6
 75
     1
 76
     0
 52
45.0
 41
0.1
 77
     0
 78
     1
 53
45.0
 43
0.0
 44
0.0
 45
-0.0707106781186548
 46
0.0707106781186548
 79
     0
 98
        1
 10
0.0
 20
0.0
  0
HATCH
  5
28D
330
71
100
AcDbEntity
  8
1
  6
Continuous
 62
     2
100
AcDbHatch
 10
0.0
 20
0.0
 30
0.0
210
0.0
220
0.0
230
1.0
  2
_USER
 70
     0
 71
     1
 91
        4
 92
        1
 93
        8
 72
     1
 10
139.5136516650832
 20
747.7699525175959
 11
139.5136516650832
 21
742.2054417483957
 72
     2
 10
139.0894070496993
 20
742.2054417483957
 40
0.4242446153832589
 50
0.0
 51
90.0
 73
     0
 72
     1
 10
139.0894070496993
 20
741.7811971330125
 11
133.6160949589825
 21
741.7811971330125
 72
     2
 10
133.6160949589825
 20
742.2054417483957
 40
0.4242446153828041
 50
90.0
 51
180.0
 73
     0
 72
     1
 10
133.1918503435997
 20
742.2054417483957
 11
133.1918503435997
 21
747.7699525175959
 72
     2
 10
133.6160949589825
 20
747.7699525175959
 40
0.4242446153838273
 50
180.0
 51
270.0
 73
     0
 72
     1
 10
133.6160949589825
 20
748.1941971329798
 11
139.0894070496993
 21
748.1941971329798
 72
     2
 10
139.0894070496993
 20
747.7699525175959
 40
0.4242446153838841
 50
270.0
 51
360.0
 73
     0
 97
        8
330
1DC
330
22A
330
1DD
330
235
330
1DA
330
22C
330
1DB
330
22B
 92
       16
 93
        1
 72
     2
 10
136.2356806095
 20
745.4510702892404
 40
0.470978932778479
 50
0.0
 51
360.0
 73
     1
 97
        1
330
250
 92
       16
 93
        8
 72
     2
 10
136.7855383222607
 20
744.341928689272
 40
0.3157169230765842
 50
115.3740086783474
 51
180.0
 73
     1
 72
     1
 10
136.4698213991839
 20
744.341928689272
 11
136.4698213991839
 21
743.760077282577
 72
     2
 10
136.7855383222607
 20
743.760077282577
 40
0.315716923076792
 50
180.0
 51
269.8110329574542
 73
     1
 72
     2
 10
136.7911544575707
 20
745.4629122301459
 40
2.018561131933266
 50
269.8110329575858
 51
450.1889670424142
 73
     1
 72
     2
 10
136.7855383222607
 20
747.165747177715
 40
0.3157169230760142
 50
90.18896704254595
 51
180.0
 73
     1
 72
     1
 10
136.4698213991839
 20
747.165747177715
 11
136.4698213991839
 21
746.5602118892082
 72
     2
 10
136.7855383222607
 20
746.5602118892082
 40
0.315716923076792
 50
180.0
 51
244.6259913216437
 73
     1
 72
     2
 10
136.2594956241728
 20
745.4510702892404
 40
0.9118481501444333
 50
295.3740086781925
 51
424.6259913218228
 73
     0
 97
        8
330
242
330
1A3
330
23F
330
240
330
21E
330
1A2
330
241
330
21D
 92
       16
 93
       12
 72
     2
 10
134.209989635729
 20
742.809469611646
 40
0.3157169230756836
 50
180.0
 51
270.0
 73
     1
 72
     1
 10
134.209989635729
 20
742.4937526885693
 11
135.6858228967386
 21
742.4937526885693
 72
     2
 10
135.6858228967386
 20
742.809469611646
 40
0.3157169230767067
 50
270.0
 51
360.0
 73
     1
 72
     1
 10
136.0015398198152
 20
742.809469611646
 11
136.0015398198152
 21
744.3402405431776
 72
     2
 10
135.6858228967386
 20
744.3402405431776
 40
0.315716923076593
 50
0.0
 51
64.80558935146468
 73
     1
 72
     2
 10
136.2084073443136
 20
745.4510702892404
 40
0.9118975235575889
 50
115.1944106485138
 51
244.805589351471
 73
     0
 72
     2
 10
135.6858228967386
 20
746.5619000353026
 40
0.3157169230761717
 50
295.1944106485354
 51
360.0
 73
     1
 72
     1
 10
136.0015398198152
 20
746.5619000353026
 11
136.0015398198152
 21
747.1659246543632
 72
     2
 10
135.6858228967386
 20
747.1659246543632
 40
0.315716923076593
 50
0.0
 51
90.0
 73
     1
 72
     1
 10
135.6858228967386
 20
747.4816415774393
 11
134.209989635729
 21
747.4816415774393
 72
     2
 10
134.209989635729
 20
747.1659246543632
 40
0.3157169230761383
 50
90.0
 51
180.0
 73
     1
 72
     1
 10
133.8942727126533
 20
747.1659246543632
 11
133.8942727126533
 21
742.809469611646
 97
       12
330
226
330
1DE
330
229
330
1D9
330
236
330
237
330
228
330
1D8
330
227
330
1D7
330
238
330
1D6
 75
     1
 76
     0
 52
45.0
 41
0.1
 77
     0
 78
     1
 53
45.0
 43
0.0
 44
0.0
 45
-0.0707106781186548
 46
0.0707106781186548
 79
     0
 98
        1
 10
0.0
 20
0.0
  0
HATCH
  5
28E
330
71
100
AcDbEntity
  8
1
  6
Continuous
 62
     2
100
AcDbHatch
 10
0.0
 20
0.0
 30
0.0
210
0.0
220
0.0
230
1.0
  2
_USER
 70
     0
 71
     1
 91
        1
 92
        1
 93
       18
 72
     1
 10
161.1031995743042
 20
744.0497413507
 11
160.2921005368308
 21
744.0497413507
 72
     1
 10
160.2921005368308
 20
744.0497413507
 11
160.2921005368308
 21
741.7811971330125
 72
     1
 10
160.2921005368308
 20
741.7811971330125
 11
159.0993078346631
 21
741.7811971330125
 72
     1
 10
159.0993078346631
 20
741.7811971330125
 11
159.0993078346631
 21
744.0497413507
 72
     1
 10
159.0993078346631
 20
744.0497413507
 11
157.995668535095
 21
744.0497413507
 72
     2
 10
157.995668535095
 20
743.0952183438739
 40
0.9545230068260935
 50
90.0
 51
109.337143219432
 73
     1
 72
     2
 10
157.8489985369913
 20
743.5131733242567
 40
0.5115800601944143
 50
109.3371432194853
 51
151.4785267424197
 73
     1
 72
     2
 10
158.2263557950727
 20
743.3081018949177
 40
0.941059735334906
 50
151.4785267423609
 51
208.5214732576695
 73
     1
 72
     2
 10
157.8489985369913
 20
743.1030304655792
 40
0.5115800601959944
 50
208.521473257681
 51
246.6277221118424
 73
     1
 72
     2
 10
158.0054385696944
 20
743.4650224842892
 40
0.9059297849852278
 50
246.6277221118168
 51
288.4480761180828
 73
     1
 72
     2
 10
157.5872708360325
 20
744.7185682603258
 40
2.227384008972719
 50
288.4480761181337
 51
301.9309089499395
 73
     1
 72
     1
 10
158.7653258780564
 20
742.8282175411761
 11
158.7653258780564
 21
741.9557005343727
 72
     2
 10
157.4293979609397
 20
746.6207828401741
 40
4.852596863498825
 50
74.0200087416617
 51
84.84185523036365
 73
     0
 72
     2
 10
157.7182540556755
 20
743.4208922569526
 40
1.639695123940421
 50
84.84185523032299
 51
164.9381082228985
 73
     0
 72
     2
 10
157.2991262122139
 20
743.3081018949177
 40
1.205656168392988
 50
164.9381082229054
 51
195.0618917770946
 73
     0
 72
     2
 10
157.7182540556755
 20
743.1953115328828
 40
1.639695123940214
 50
195.0618917771053
 51
270.0
 73
     0
 72
     1
 10
157.7182540556755
 20
744.835006656823
 11
161.1031995743042
 21
744.8350066568235
 72
     1
 10
161.1031995743042
 20
744.8350066568235
 11
161.1031995743042
 21
744.0497413507
 97
       18
330
1A5
330
23B
330
23C
330
224
330
223
330
209
330
222
330
221
330
23D
330
220
330
23E
330
21F
330
20A
330
1A4
330
1A9
330
1A8
330
1A7
330
1A6
 75
     1
 76
     0
 52
45.0
 41
0.1
 77
     0
 78
     1
 53
45.0
 43
0.0
 44
0.0
 45
-0.0707106781186548
 46
0.0707106781186548
 79
     0
 98
        1
 10
0.0
 20
0.0
  0
HATCH
  5
28F
330
71
100
AcDbEntity
  8
1
  6
Continuous
 62
     2
100
AcDbHatch
 10
0.0
 20
0.0
 30
0.0
210
0.0
220
0.0
230
1.0
  2
_USER
 70
     0
 71
     1
 91
        1
 92
        1
 93
       18
 72
     1
 10
161.1031995743042
 20
744.0497413507
 11
160.2921005368308
 21
744.0497413507
 72
     1
 10
160.2921005368308
 20
744.0497413507
 11
160.2921005368308
 21
741.7811971330125
 72
     1
 10
160.2921005368308
 20
741.7811971330125
 11
159.0993078346631
 21
741.7811971330125
 72
     1
 10
159.0993078346631
 20
741.7811971330125
 11
159.0993078346631
 21
744.0497413507
 72
     1
 10
159.0993078346631
 20
744.0497413507
 11
157.995668535095
 21
744.0497413507
 72
     2
 10
157.995668535095
 20
743.0952183438739
 40
0.9545230068260935
 50
90.0
 51
109.337143219432
 73
     1
 72
     2
 10
157.8489985369913
 20
743.5131733242567
 40
0.5115800601944143
 50
109.3371432194853
 51
151.4785267424197
 73
     1
 72
     2
 10
158.2263557950727
 20
743.3081018949177
 40
0.941059735334906
 50
151.4785267423609
 51
208.5214732576695
 73
     1
 72
     2
 10
157.8489985369913
 20
743.1030304655792
 40
0.5115800601959944
 50
208.521473257681
 51
246.6277221118424
 73
     1
 72
     2
 10
158.0054385696944
 20
743.4650224842892
 40
0.9059297849852278
 50
246.6277221118168
 51
288.4480761180828
 73
     1
 72
     2
 10
157.5872708360325
 20
744.7185682603258
 40
2.227384008972719
 50
288.4480761181337
 51
301.9309089499395
 73
     1
 72
     1
 10
158.7653258780564
 20
742.8282175411761
 11
158.7653258780564
 21
741.9557005343727
 72
     2
 10
157.4293979609397
 20
746.6207828401741
 40
4.852596863498825
 50
74.0200087416617
 51
84.84185523036365
 73
     0
 72
     2
 10
157.7182540556755
 20
743.4208922569526
 40
1.639695123940421
 50
84.84185523032299
 51
164.9381082228985
 73
     0
 72
     2
 10
157.2991262122139
 20
743.3081018949177
 40
1.205656168392988
 50
164.9381082229054
 51
195.0618917770946
 73
     0
 72
     2
 10
157.7182540556755
 20
743.1953115328828
 40
1.639695123940214
 50
195.0618917771053
 51
270.0
 73
     0
 72
     1
 10
157.7182540556755
 20
744.835006656823
 11
161.1031995743042
 21
744.8350066568235
 72
     1
 10
161.1031995743042
 20
744.8350066568235
 11
161.1031995743042
 21
744.0497413507
 97
       18
330
1A5
330
23B
330
23C
330
224
330
223
330
209
330
222
330
221
330
23D
330
220
330
23E
330
21F
330
20A
330
1A4
330
1A9
330
1A8
330
1A7
330
1A6
 75
     1
 76
     0
 52
45.0
 41
0.1
 77
     0
 78
     1
 53
45.0
 43
0.0
 44
0.0
 45
-0.0707106781186548
 46
0.0707106781186548
 79
     0
 98
        1
 10
0.0
 20
0.0
  0
HATCH
  5
290
330
71
100
AcDbEntity
  8
1
  6
Continuous
 62
     2
100
AcDbHatch
 10
0.0
 20
0.0
 30
0.0
210
0.0
220
0.0
230
1.0
  2
_USER
 70
     0
 71
     1
 91
        1
 92
        1
 93
       14
 72
     2
 10
141.6155525764226
 20
743.1953115328828
 40
1.639695123940563
 50
84.84185523036254
 51
164.9381082228867
 73
     1
 72
     2
 10
141.1964247329598
 20
743.3081018949177
 40
1.205656168390957
 50
164.9381082228794
 51
195.0618917770945
 73
     1
 72
     2
 10
141.6155525764226
 20
743.4208922569526
 40
1.639695123939422
 50
195.0618917770903
 51
275.1581447696393
 73
     1
 72
     2
 10
141.3266964816867
 20
746.6207828401741
 40
4.852596863498166
 50
275.1581447696249
 51
285.979991258353
 73
     1
 72
     1
 10
142.6626243988045
 20
741.9557005343734
 11
142.6626243988045
 21
742.8282175411765
 72
     2
 10
141.4845693567796
 20
744.7185682603264
 40
2.227384008972719
 50
58.06909105003973
 51
71.55192388186632
 73
     0
 72
     2
 10
141.9027370904404
 20
743.4650224842892
 40
0.9059297849848783
 50
71.55192388184098
 51
113.372277888132
 73
     0
 72
     2
 10
141.7462970577384
 20
743.1030304655792
 40
0.5115800601948034
 50
113.3722778881781
 51
151.4785267423044
 73
     0
 72
     2
 10
142.1236543158187
 20
743.3081018949177
 40
0.9410597353332545
 50
151.4785267422912
 51
208.5214732577331
 73
     0
 72
     2
 10
141.7462970577384
 20
743.5131733242567
 40
0.511580060194863
 50
208.5214732576956
 51
246.6277221117967
 73
     0
 72
     2
 10
141.9027370904404
 20
743.1511813055461
 40
0.9059297849853768
 50
246.6277221118708
 51
288.4480761181454
 73
     0
 72
     2
 10
141.4845693567796
 20
741.8976355295096
 40
2.227384008973468
 50
288.4480761181337
 51
301.9309089499603
 73
     0
 72
     1
 10
142.6626243988045
 20
743.7879862486594
 11
142.6626243988045
 21
744.6605032554627
 72
     2
 10
141.3266964816867
 20
739.9954209496618
 40
4.85259686349804
 50
74.02000874164729
 51
84.84185523037509
 73
     1
 97
       14
330
243
330
244
330
245
330
246
330
20B
330
21C
330
21B
330
21A
330
247
330
248
330
219
330
249
330
20C
330
218
 75
     1
 76
     0
 52
45.0
 41
0.1
 77
     0
 78
     1
 53
45.0
 43
0.0
 44
0.0
 45
-0.0707106781186548
 46
0.0707106781186548
 79
     0
 98
        1
 10
0.0
 20
0.0
  0
HATCH
  5
291
330
71
100
AcDbEntity
  8
1
  6
Continuous
 62
     2
100
AcDbHatch
 10
0.0
 20
0.0
 30
0.0
210
0.0
220
0.0
230
1.0
  2
_USER
 70
     0
 71
     1
 91
        1
 92
        1
 93
       14
 72
     2
 10
141.6155525764226
 20
743.1953115328828
 40
1.639695123940563
 50
84.84185523036254
 51
164.9381082228867
 73
     1
 72
     2
 10
141.1964247329598
 20
743.3081018949177
 40
1.205656168390957
 50
164.9381082228794
 51
195.0618917770945
 73
     1
 72
     2
 10
141.6155525764226
 20
743.4208922569526
 40
1.639695123939422
 50
195.0618917770903
 51
275.1581447696393
 73
     1
 72
     2
 10
141.3266964816867
 20
746.6207828401741
 40
4.852596863498166
 50
275.1581447696249
 51
285.979991258353
 73
     1
 72
     1
 10
142.6626243988045
 20
741.9557005343734
 11
142.6626243988045
 21
742.8282175411765
 72
     2
 10
141.4845693567796
 20
744.7185682603264
 40
2.227384008972719
 50
58.06909105003973
 51
71.55192388186632
 73
     0
 72
     2
 10
141.9027370904404
 20
743.4650224842892
 40
0.9059297849848783
 50
71.55192388184098
 51
113.372277888132
 73
     0
 72
     2
 10
141.7462970577384
 20
743.1030304655792
 40
0.5115800601948034
 50
113.3722778881781
 51
151.4785267423044
 73
     0
 72
     2
 10
142.1236543158187
 20
743.3081018949177
 40
0.9410597353332545
 50
151.4785267422912
 51
208.5214732577331
 73
     0
 72
     2
 10
141.7462970577384
 20
743.5131733242567
 40
0.511580060194863
 50
208.5214732576956
 51
246.6277221117967
 73
     0
 72
     2
 10
141.9027370904404
 20
743.1511813055461
 40
0.9059297849853768
 50
246.6277221118708
 51
288.4480761181454
 73
     0
 72
     2
 10
141.4845693567796
 20
741.8976355295096
 40
2.227384008973468
 50
288.4480761181337
 51
301.9309089499603
 73
     0
 72
     1
 10
142.6626243988045
 20
743.7879862486594
 11
142.6626243988045
 21
744.6605032554627
 72
     2
 10
141.3266964816867
 20
739.9954209496618
 40
4.85259686349804
 50
74.02000874164729
 51
84.84185523037509
 73
     1
 97
       14
330
243
330
244
330
245
330
246
330
20B
330
21C
330
21B
330
21A
330
247
330
248
330
219
330
249
330
20C
330
218
 75
     1
 76
     0
 52
45.0
 41
0.1
 77
     0
 78
     1
 53
45.0
 43
0.0
 44
0.0
 45
-0.0707106781186548
 46
0.0707106781186548
 79
     0
 98
        1
 10
0.0
 20
0.0
  0
ENDBLK
  5
73
330
71
100
AcDbEntity
  8
0
100
AcDbBlockEnd
  0
BLOCK
  5
75
330
74
100
AcDbEntity
  8
0
100
AcDbBlockBegin
  2
_punkt
 70
     0
 10
258.4999999837871
 20
734.4876971329961
 30
0.0
  3
_punkt
  1

  0
LINE
  5
292
330
74
100
AcDbEntity
  8
1
  6
Continuous
 62
     2
100
AcDbLine
 10
258.4999999837871
 20
734.4876971329961
 30
0.0
 11
263.4999999837861
 21
734.4876971329961
 31
0.0
  0
LINE
  5
293
330
74
100
AcDbEntity
  8
1
  6
Continuous
 62
     2
100
AcDbLine
 10
258.4999999837871
 20
734.4876971329961
 30
0.0
 11
258.4999999837871
 21
729.487697132996
 31
0.0
  0
ENDBLK
  5
76
330
74
100
AcDbEntity
  8
0
100
AcDbBlockEnd
  0
BLOCK
  5
7A
330
77
100
AcDbEntity
  8
0
100
AcDbBlockBegin
  2
A4I_CS
 70
     0
 10
258.4999999837871
 20
729.487697132996
 30
0.0
  3
A4I_CS
  1

  0
INSERT
  5
78
330
77
100
AcDbEntity
  8
1
100
AcDbBlockReference
  2
_rahmen
 10
258.4999999837871
 20
729.487697132996
 30
0.0
  0
INSERT
  5
79
330
77
100
AcDbEntity
  8
1
100
AcDbBlockReference
  2
_punkt
 10
258.4999999837871
 20
734.4876971329961
 30
0.0
  0
ENDBLK
  5
7B
330
77
100
AcDbEntity
  8
0
100
AcDbBlockEnd
  0
BLOCK
  5
84
330
7C
100
AcDbEntity
  8
0
100
AcDbBlockBegin
  2
1
 70
     0
 10
0.0
 20
0.0
 30
0.0
  3
1
  1

  0
INSERT
  5
7D
330
7C
100
AcDbEntity
  8
0
100
AcDbBlockReference
  2
AllgSicht1
 10
189.0000000000188
 20
805.00000000001
 30
0.0
  0
INSERT
  5
7E
330
7C
100
AcDbEntity
  8
0
100
AcDbBlockReference
  2
Drfsicht1
 10
61.14345052590856
 20
832.1178657824664
 30
0.0
  0
INSERT
  5
7F
330
7C
100
AcDbEntity
  8
0
100
AcDbBlockReference
  2
Rckans1
 10
193.8499983278512
 20
889.000000000015
 30
0.0
  0
INSERT
  5
80
330
7C
100
AcDbEntity
  8
0
100
AcDbBlockReference
  2
SA_Links1
 10
129.0072789092258
 20
889.0000000000299
 30
0.0
  0
INSERT
  5
81
330
7C
100
AcDbEntity
  8
0
100
AcDbBlockReference
  2
SA_Rechts1
 10
-18.70654716001923
 20
889.000000000015
 30
0.0
  0
INSERT
  5
82
330
7C
100
AcDbEntity
  8
0
100
AcDbBlockReference
  2
Vordans1
 10
61.14345102159392
 20
889.000000000015
 30
0.0
  0
INSERT
  5
83
330
7C
100
AcDbEntity
  8
0
100
AcDbBlockReference
  2
A4I_CS
 10
258.4999999837871
 20
729.487697132996
 30
0.0
  0
ENDBLK
  5
85
330
7C
100
AcDbEntity
  8
0
100
AcDbBlockEnd
  0
BLOCK
  5
EE
330
E5
100
AcDbEntity
  8
0
100
AcDbBlockBegin
  2
*D17
 70
     1
 10
0.0
 20
0.0
 30
0.0
  3
*D17
  1

  0
LINE
  5
E6
330
E5
100
AcDbEntity
  8
1
  6
Continuous
 62
     2
100
AcDbLine
 10
-0.52773337270816
 20
840.2250013338011
 30
0.0
 11
-0.52773337270816
 21
833.2250013338011
 31
0.0
  0
LINE
  5
E7
330
E5
100
AcDbEntity
  8
1
  6
Continuous
 62
     2
100
AcDbLine
 10
-0.52773337270816
 20
833.2250013338011
 30
0.0
 11
-0.52773337270816
 21
831.025001333801
 31
0.0
  0
LINE
  5
E8
330
E5
100
AcDbEntity
  8
1
  6
Continuous
 62
     2
100
AcDbLine
 10
-0.52773337270816
 20
831.025001333801
 30
0.0
 11
-0.52773337270816
 21
824.025001333801
 31
0.0
  0
LINE
  5
E9
330
E5
100
AcDbEntity
  8
1
  6
Continuous
 62
     2
100
AcDbLine
 10
6.79345219389923
 20
833.2250013338011
 30
0.0
 11
-2.02773337270816
 21
833.2250013338011
 31
0.0
  0
LINE
  5
EA
330
E5
100
AcDbEntity
  8
1
  6
Continuous
 62
     2
100
AcDbLine
 10
6.79345219389923
 20
831.025001333801
 30
0.0
 11
-2.02773337270816
 21
831.025001333801
 31
0.0
  0
SOLID
  5
EB
330
E5
100
AcDbEntity
  8
1
 62
     2
100
AcDbTrace
 10
-0.98851711426404
 20
836.7250013338011
 30
0.0
 11
-0.06694963115227
 21
836.7250013338011
 31
0.0
 12
-0.52773337270816
 22
833.2250013338011
 32
0.0
 13
-0.52773337270816
 23
833.2250013338011
 33
0.0
  0
SOLID
  5
EC
330
E5
100
AcDbEntity
  8
1
 62
     2
100
AcDbTrace
 10
-0.06694963115227
 20
827.525001333801
 30
0.0
 11
-0.98851711426404
 21
827.525001333801
 31
0.0
 12
-0.52773337270816
 22
831.025001333801
 32
0.0
 13
-0.52773337270816
 23
831.025001333801
 33
0.0
  0
MTEXT
  5
ED
330
E5
100
AcDbEntity
  8
1
 62
     3
100
AcDbMText
 10
-2.87773337270816
 20
829.32174221332
 30
0.0
 40
3.5
 41
0.0
 71
     7
 72
     1
  1
2,2
  7
CONVERTER_11
 11
0.0
 21
1.0
 31
0.0
 73
     1
 44
0.60024009603842
  0
ENDBLK
  5
EF
330
E5
100
AcDbEntity
  8
0
100
AcDbBlockEnd
  0
BLOCK
  5
14C
330
145
100
AcDbEntity
  8
0
100
AcDbBlockBegin
  2
*D18
 70
     1
 10
0.0
 20
0.0
 30
0.0
  3
*D18
  1

  0
LINE
  5
146
330
145
100
AcDbEntity
  8
1
  6
Continuous
 62
     2
100
AcDbLine
 10
114.9934526895906
 20
852.7988280312262
 30
0.0
 11
7.29345268958458
 21
852.7988280312262
 31
0.0
  0
LINE
  5
147
330
145
100
AcDbEntity
  8
1
  6
Continuous
 62
     2
100
AcDbLine
 10
114.9934526895906
 20
870.225509218405
 30
0.0
 11
114.9934526895906
 21
850.7988280312262
 31
0.0
  0
LINE
  5
148
330
145
100
AcDbEntity
  8
1
  6
Continuous
 62
     2
100
AcDbLine
 10
7.29345268958458
 20
867.225000498631
 30
0.0
 11
7.29345268958458
 21
850.7988280312262
 31
0.0
  0
SOLID
  5
149
330
145
100
AcDbEntity
  8
1
 62
     2
100
AcDbTrace
 10
111.4934526895906
 20
852.3380442896703
 30
0.0
 11
111.4934526895906
 21
853.2596117727821
 31
0.0
 12
114.9934526895906
 22
852.7988280312262
 32
0.0
 13
114.9934526895906
 23
852.7988280312262
 33
0.0
  0
SOLID
  5
14A
330
145
100
AcDbEntity
  8
1
 62
     2
100
AcDbTrace
 10
10.79345268958458
 20
853.2596117727821
 30
0.0
 11
10.79345268958458
 21
852.3380442896703
 31
0.0
 12
7.29345268958458
 22
852.7988280312262
 32
0.0
 13
7.29345268958458
 23
852.7988280312262
 33
0.0
  0
MTEXT
  5
14B
330
145
100
AcDbEntity
  8
1
 62
     3
100
AcDbMText
 10
59.52534143072221
 20
854.7988280312262
 30
0.0
 40
3.5
 41
0.0
 71
     7
 72
     1
  1
108
  7
CONVERTER_11
 11
0.9999999999970619
 21
2.424068405545306E-6
 31
0.0
 73
     1
 44
0.60024009603842
  0
ENDBLK
  5
14D
330
145
100
AcDbEntity
  8
0
100
AcDbBlockEnd
  0
BLOCK
  5
157
330
150
100
AcDbEntity
  8
0
100
AcDbBlockBegin
  2
*D19
 70
     1
 10
0.0
 20
0.0
 30
0.0
  3
*D19
  1

  0
LINE
  5
151
330
150
100
AcDbEntity
  8
1
  6
Continuous
 62
     2
100
AcDbLine
 10
-0.79352249536105
 20
910.7750004986309
 30
0.0
 11
-0.79352249536105
 21
867.225000498631
 31
0.0
  0
LINE
  5
152
330
150
100
AcDbEntity
  8
1
  6
Continuous
 62
     2
100
AcDbLine
 10
8.75489386001391
 20
910.7750004986309
 30
0.0
 11
-2.29352249536105
 21
910.7750004986309
 31
0.0
  0
LINE
  5
153
330
150
100
AcDbEntity
  8
1
  6
Continuous
 62
     2
100
AcDbLine
 10
6.79345268958459
 20
867.225000498631
 30
0.0
 11
-2.29352249536105
 21
867.225000498631
 31
0.0
  0
SOLID
  5
154
330
150
100
AcDbEntity
  8
1
 62
     2
100
AcDbTrace
 10
-0.33273875380516
 20
907.2750004986309
 30
0.0
 11
-1.25430623691693
 21
907.2750004986309
 31
0.0
 12
-0.79352249536105
 22
910.7750004986309
 32
0.0
 13
-0.79352249536105
 23
910.7750004986309
 33
0.0
  0
SOLID
  5
155
330
150
100
AcDbEntity
  8
1
 62
     2
100
AcDbTrace
 10
-1.25430623691693
 20
870.725000498631
 30
0.0
 11
-0.33273875380516
 21
870.725000498631
 31
0.0
 12
-0.79352249536105
 22
867.225000498631
 32
0.0
 13
-0.79352249536105
 23
867.225000498631
 33
0.0
  0
MTEXT
  5
156
330
150
100
AcDbEntity
  8
1
 62
     3
100
AcDbMText
 10
-3.14352249536105
 20
882.5221014869929
 30
0.0
 40
3.5
 41
0.0
 71
     7
 72
     1
  1
43,55
  7
CONVERTER_11
 11
0.0
 21
1.0
 31
0.0
 73
     1
 44
0.60024009603842
  0
ENDBLK
  5
158
330
150
100
AcDbEntity
  8
0
100
AcDbBlockEnd
  0
ENDSEC
  0
SECTION
  2
ENTITIES
  0
INSERT
  5
86
330
1F
100
AcDbEntity
  8
1
100
AcDbBlockReference
  2
1
 10
0.0
 20
0.0
 30
0.0
  0
ENDSEC
  0
SECTION
  2
OBJECTS
  0
DICTIONARY
  5
C
330
0
100
AcDbDictionary
281
     1
  3
ACAD_GROUP
350
D
  3
ACAD_LAYOUT
350
1A
  3
ACAD_MATERIAL
350
3B
  3
ACAD_MLEADERSTYLE
350
2BB
  3
ACAD_MLINESTYLE
350
17
  3
ACAD_PLOTSETTINGS
350
19
  3
ACAD_PLOTSTYLENAME
350
E
  3
ACAD_TABLESTYLE
350
2BA
  3
ACAD_VISUALSTYLE
350
2A
  0
DICTIONARY
  5
D
102
{ACAD_REACTORS
330
C
102
}
330
C
100
AcDbDictionary
281
     1
  0
DICTIONARY
  5
1A
102
{ACAD_REACTORS
330
C
102
}
330
C
100
AcDbDictionary
281
     1
  3
Layout1
350
1E
  3
Layout2
350
26
  3
Model
350
22
  0
DICTIONARY
  5
3B
102
{ACAD_REACTORS
330
C
102
}
330
C
100
AcDbDictionary
281
     1
  3
ByBlock
350
3D
  3
ByLayer
350
3C
  3
Global
350
3E
  0
DICTIONARY
  5
2BB
102
{ACAD_REACTORS
330
C
102
}
330
C
100
AcDbDictionary
281
     1
  0
DICTIONARY
  5
17
102
{ACAD_REACTORS
330
C
102
}
330
C
100
AcDbDictionary
281
     1
  3
Standard
350
18
  0
DICTIONARY
  5
19
102
{ACAD_REACTORS
330
C
102
}
330
C
100
AcDbDictionary
281
     1
  0
ACDBDICTIONARYWDFLT
  5
E
102
{ACAD_REACTORS
330
C
102
}
330
C
100
AcDbDictionary
281
     1
  3
Normal
350
F
100
AcDbDictionaryWithDefault
340
F
  0
DICTIONARY
  5
2BA
102
{ACAD_REACTORS
330
C
102
}
330
C
100
AcDbDictionary
281
     1
  0
DICTIONARY
  5
2A
102
{ACAD_REACTORS
330
C
102
}
330
C
100
AcDbDictionary
281
     1
  3
2dWireframe
350
2F
  3
3D Hidden
350
31
  3
3dWireframe
350
30
  3
Basic
350
32
  3
Brighten
350
36
  3
ColorChange
350
3A
  3
Conceptual
350
34
  3
Dim
350
35
  3
Facepattern
350
39
  3
Flat
350
2B
  3
FlatWithEdges
350
2C
  3
Gouraud
350
2D
  3
GouraudWithEdges
350
2E
  3
Linepattern
350
38
  3
Realistic
350
33
  3
Thicken
350
37
  0
LAYOUT
  5
1E
102
{ACAD_REACTORS
330
1A
102
}
330
1A
100
AcDbPlotSettings
  1

  2
none_device
  4

  6

 40
0.0
 41
0.0
 42
0.0
 43
0.0
 44
0.0
 45
0.0
 46
0.0
 47
0.0
 48
0.0
 49
0.0
140
0.0
141
0.0
142
1.0
143
1.0
 70
   688
 72
     0
 73
     0
 74
     5
  7

 75
    16
 76
     0
 77
     2
 78
   300
147
1.0
148
0.0
149
0.0
100
AcDbLayout
  1
Layout1
 70
     1
 71
     1
 10
0.0
 20
0.0
 11
12.0
 21
9.0
 12
0.0
 22
0.0
 32
0.0
 14
1.00000000000000E+20
 24
1.00000000000000E+20
 34
1.00000000000000E+20
 15
-1.00000000000000E+20
 25
-1.00000000000000E+20
 35
-1.00000000000000E+20
146
0.0
 13
0.0
 23
0.0
 33
0.0
 16
1.0
 26
0.0
 36
0.0
 17
0.0
 27
1.0
 37
0.0
 76
     0
330
1B
  0
LAYOUT
  5
26
102
{ACAD_REACTORS
330
1A
102
}
330
1A
100
AcDbPlotSettings
  1

  2
none_device
  4

  6

 40
0.0
 41
0.0
 42
0.0
 43
0.0
 44
0.0
 45
0.0
 46
0.0
 47
0.0
 48
0.0
 49
0.0
140
0.0
141
0.0
142
1.0
143
1.0
 70
   688
 72
     0
 73
     0
 74
     5
  7

 75
    16
 76
     0
 77
     2
 78
   300
147
1.0
148
0.0
149
0.0
100
AcDbLayout
  1
Layout2
 70
     1
 71
     2
 10
0.0
 20
0.0
 11
0.0
 21
0.0
 12
0.0
 22
0.0
 32
0.0
 14
0.0
 24
0.0
 34
0.0
 15
0.0
 25
0.0
 35
0.0
146
0.0
 13
0.0
 23
0.0
 33
0.0
 16
1.0
 26
0.0
 36
0.0
 17
0.0
 27
1.0
 37
0.0
 76
     0
330
23
  0
LAYOUT
  5
22
102
{ACAD_REACTORS
330
1A
102
}
330
1A
100
AcDbPlotSettings
  1

  2
none_device
  4

  6

 40
0.0
 41
0.0
 42
0.0
 43
0.0
 44
0.0
 45
0.0
 46
0.0
 47
0.0
 48
0.0
 49
0.0
140
0.0
141
0.0
142
1.0
143
1.0
 70
  1712
 72
     0
 73
     0
 74
     0
  7

 75
     0
 76
     0
 77
     2
 78
   300
147
1.0
148
0.0
149
0.0
100
AcDbLayout
  1
Model
 70
     1
 71
     0
 10
0.0
 20
0.0
 11
12.0
 21
9.0
 12
0.0
 22
0.0
 32
0.0
 14
-33.50000001621197
 24
729.487697132996
 34
0.0
 15
263.4999999837861
 25
939.4876971329961
 35
0.0
146
0.0
 13
0.0
 23
0.0
 33
0.0
 16
1.0
 26
0.0
 36
0.0
 17
0.0
 27
1.0
 37
0.0
 76
     0
330
1F
331
29
  0
MATERIAL
  5
3D
102
{ACAD_REACTORS
330
3B
102
}
102
{ACAD_XDICTIONARY
360
2B6
102
}
330
3B
100
AcDbMaterial
  1
ByBlock
  0
MATERIAL
  5
3C
102
{ACAD_REACTORS
330
3B
102
}
102
{ACAD_XDICTIONARY
360
2B4
102
}
330
3B
100
AcDbMaterial
  1
ByLayer
  0
MATERIAL
  5
3E
102
{ACAD_REACTORS
330
3B
102
}
102
{ACAD_XDICTIONARY
360
2B8
102
}
330
3B
100
AcDbMaterial
  1
Global
  0
MLINESTYLE
  5
18
102
{ACAD_REACTORS
330
17
102
}
330
17
100
AcDbMlineStyle
  2
Standard
 70
     0
  3

 62
   256
 51
90.0
 52
90.0
 71
     2
 49
0.5
 62
   256
  6
BYLAYER
 49
-0.5
 62
   256
  6
BYLAYER
  0
ACDBPLACEHOLDER
  5
F
102
{ACAD_REACTORS
330
E
102
}
330
E
  0
VISUALSTYLE
  5
2F
102
{ACAD_REACTORS
330
2A
102
}
102
{ACAD_XDICTIONARY
360
29C
102
}
330
2A
100
AcDbVisualStyle
  2
2dWireframe
 70
     4
 71
     0
 72
     2
 73
     0
 90
        0
 40
-0.6
 41
-30.0
 62
     5
 63
     7
421
 16777215
 74
     1
 91
        4
 64
     7
 65
   257
 75
     1
175
     1
 42
1.0
 92
        0
 66
   257
 43
1.0
 76
     1
 77
     6
 78
     2
 67
     7
 79
     5
170
     0
171
     0
290
     0
174
     0
 93
        1
 44
0.0
173
     0
291
     0
 45
0.0
1001
ACAD
1000
AcDbSavedByObjectVersion
1070
     0
  0
VISUALSTYLE
  5
31
102
{ACAD_REACTORS
330
2A
102
}
102
{ACAD_XDICTIONARY
360
2A0
102
}
330
2A
100
AcDbVisualStyle
  2
3D Hidden
 70
     6
 71
     1
 72
     2
 73
     2
 90
        0
 40
-0.6
 41
-30.0
 62
     5
 63
     7
421
 16777215
 74
     2
 91
        2
 64
     7
 65
   257
 75
     2
175
     1
 42
40.0
 92
        0
 66
   257
 43
1.0
 76
     1
 77
     6
 78
     2
 67
     7
 79
     3
170
     0
171
     0
290
     0
174
     0
 93
        1
 44
0.0
173
     0
291
     0
 45
0.0
1001
ACAD
1000
AcDbSavedByObjectVersion
1070
     0
  0
VISUALSTYLE
  5
30
102
{ACAD_REACTORS
330
2A
102
}
102
{ACAD_XDICTIONARY
360
29E
102
}
330
2A
100
AcDbVisualStyle
  2
3dWireframe
 70
     5
 71
     0
 72
     2
 73
     0
 90
        0
 40
-0.6
 41
-30.0
 62
     5
 63
     7
421
 16777215
 74
     1
 91
        4
 64
     7
 65
   257
 75
     1
175
     1
 42
1.0
 92
        0
 66
   257
 43
1.0
 76
     1
 77
     6
 78
     2
 67
     7
 79
     5
170
     0
171
     0
290
     0
174
     0
 93
        1
 44
0.0
173
     0
291
     0
 45
0.0
1001
ACAD
1000
AcDbSavedByObjectVersion
1070
     0
  0
VISUALSTYLE
  5
32
102
{ACAD_REACTORS
330
2A
102
}
102
{ACAD_XDICTIONARY
360
2A2
102
}
330
2A
100
AcDbVisualStyle
  2
Basic
 70
     7
 71
     1
 72
     0
 73
     1
 90
        0
 40
-0.6
 41
-30.0
 62
     5
 63
     7
421
 16777215
 74
     0
 91
        4
 64
     7
 65
   257
 75
     1
175
     1
 42
1.0
 92
        8
 66
     7
 43
1.0
 76
     1
 77
     6
 78
     2
 67
     7
 79
     5
170
     0
171
     0
290
     0
174
     0
 93
        1
 44
0.0
173
     0
291
     1
 45
0.0
1001
ACAD
1000
AcDbSavedByObjectVersion
1070
     0
  0
VISUALSTYLE
  5
36
102
{ACAD_REACTORS
330
2A
102
}
102
{ACAD_XDICTIONARY
360
2AA
102
}
330
2A
100
AcDbVisualStyle
  2
Brighten
 70
    12
 71
     2
 72
     2
 73
     0
 90
        0
 40
-0.6
 41
-30.0
 62
     5
 63
     7
421
 16777215
 74
     1
 91
        4
 64
     7
 65
   257
 75
     1
175
     1
 42
1.0
 92
        8
 66
     7
 43
1.0
 76
     1
 77
     6
 78
     2
 67
     7
 79
     5
170
     0
171
     0
290
     0
174
     0
 93
        1
 44
50.0
173
     0
291
     1
 45
0.0
1001
ACAD
1000
AcDbSavedByObjectVersion
1070
     0
  0
VISUALSTYLE
  5
3A
102
{ACAD_REACTORS
330
2A
102
}
102
{ACAD_XDICTIONARY
360
2B2
102
}
330
2A
100
AcDbVisualStyle
  2
ColorChange
 70
    16
 71
     2
 72
     2
 73
     3
 90
        0
 40
-0.6
 41
-30.0
 62
     5
 63
     8
421
  8421504
 74
     1
 91
        4
 64
     7
 65
   257
 75
     1
175
     1
 42
1.0
 92
        8
 66
     8
424
  8421504
 43
1.0
 76
     1
 77
     6
 78
     2
 67
     7
 79
     5
170
     0
171
     0
290
     0
174
     0
 93
        1
 44
0.0
173
     0
291
     1
 45
0.0
1001
ACAD
1000
AcDbSavedByObjectVersion
1070
     0
  0
VISUALSTYLE
  5
34
102
{ACAD_REACTORS
330
2A
102
}
102
{ACAD_XDICTIONARY
360
2A6
102
}
330
2A
100
AcDbVisualStyle
  2
Conceptual
 70
     9
 71
     3
 72
     2
 73
     0
 90
        0
 40
-0.6
 41
-30.0
 62
     5
 63
     7
421
 16777215
 74
     2
 91
        2
 64
     7
 65
   257
 75
     1
175
     1
 42
40.0
 92
        8
 66
     7
 43
1.0
 76
     1
 77
     6
 78
     2
 67
     7
 79
     3
170
     0
171
     0
290
     0
174
     0
 93
        1
 44
0.0
173
     0
291
     0
 45
0.0
1001
ACAD
1000
AcDbSavedByObjectVersion
1070
     0
  0
VISUALSTYLE
  5
35
102
{ACAD_REACTORS
330
2A
102
}
102
{ACAD_XDICTIONARY
360
2A8
102
}
330
2A
100
AcDbVisualStyle
  2
Dim
 70
    11
 71
     2
 72
     2
 73
     0
 90
        0
 40
-0.6
 41
-30.0
 62
     5
 63
     7
421
 16777215
 74
     1
 91
        4
 64
     7
 65
   257
 75
     1
175
     1
 42
1.0
 92
        8
 66
     7
 43
1.0
 76
     1
 77
     6
 78
     2
 67
     7
 79
     5
170
     0
171
     0
290
     0
174
     0
 93
        1
 44
-50.0
173
     0
291
     1
 45
0.0
1001
ACAD
1000
AcDbSavedByObjectVersion
1070
     0
  0
VISUALSTYLE
  5
39
102
{ACAD_REACTORS
330
2A
102
}
102
{ACAD_XDICTIONARY
360
2B0
102
}
330
2A
100
AcDbVisualStyle
  2
Facepattern
 70
    15
 71
     2
 72
     2
 73
     0
 90
        0
 40
-0.6
 41
-30.0
 62
     5
 63
     7
421
 16777215
 74
     1
 91
        4
 64
     7
 65
   257
 75
     1
175
     1
 42
1.0
 92
        8
 66
     7
 43
1.0
 76
     1
 77
     6
 78
     2
 67
     7
 79
     5
170
     0
171
     0
290
     0
174
     0
 93
        1
 44
0.0
173
     0
291
     1
 45
0.0
1001
ACAD
1000
AcDbSavedByObjectVersion
1070
     0
  0
VISUALSTYLE
  5
2B
102
{ACAD_REACTORS
330
2A
102
}
102
{ACAD_XDICTIONARY
360
294
102
}
330
2A
100
AcDbVisualStyle
  2
Flat
 70
     0
 71
     2
 72
     1
 73
     1
 90
        2
 40
-0.6
 41
30.0
 62
     5
 63
     7
421
 16777215
 74
     0
 91
        4
 64
     7
 65
   257
 75
     1
175
     1
 42
1.0
 92
        8
 66
     7
 43
1.0
 76
     1
 77
     6
 78
     2
 67
     7
 79
     5
170
     0
171
     0
290
     0
174
     0
 93
       13
 44
0.0
173
     0
291
     1
 45
0.0
1001
ACAD
1000
AcDbSavedByObjectVersion
1070
     0
  0
VISUALSTYLE
  5
2C
102
{ACAD_REACTORS
330
2A
102
}
102
{ACAD_XDICTIONARY
360
296
102
}
330
2A
100
AcDbVisualStyle
  2
FlatWithEdges
 70
     1
 71
     2
 72
     1
 73
     1
 90
        2
 40
-0.6
 41
30.0
 62
     5
 63
     7
421
 16777215
 74
     1
 91
        4
 64
     7
 65
   257
 75
     1
175
     1
 42
1.0
 92
        0
 66
   257
 43
1.0
 76
     1
 77
     6
 78
     2
 67
     7
 79
     5
170
     0
171
     0
290
     0
174
     0
 93
       13
 44
0.0
173
     0
291
     1
 45
0.0
1001
ACAD
1000
AcDbSavedByObjectVersion
1070
     0
  0
VISUALSTYLE
  5
2D
102
{ACAD_REACTORS
330
2A
102
}
102
{ACAD_XDICTIONARY
360
298
102
}
330
2A
100
AcDbVisualStyle
  2
Gouraud
 70
     2
 71
     2
 72
     2
 73
     1
 90
        2
 40
-0.6
 41
30.0
 62
     5
 63
     7
421
 16777215
 74
     0
 91
        4
 64
     7
 65
   257
 75
     1
175
     1
 42
1.0
 92
        0
 66
     7
 43
1.0
 76
     1
 77
     6
 78
     2
 67
     7
 79
     5
170
     0
171
     0
290
     0
174
     0
 93
       13
 44
0.0
173
     0
291
     1
 45
0.0
1001
ACAD
1000
AcDbSavedByObjectVersion
1070
     0
  0
VISUALSTYLE
  5
2E
102
{ACAD_REACTORS
330
2A
102
}
102
{ACAD_XDICTIONARY
360
29A
102
}
330
2A
100
AcDbVisualStyle
  2
GouraudWithEdges
 70
     3
 71
     2
 72
     2
 73
     1
 90
        2
 40
-0.6
 41
30.0
 62
     5
 63
     7
421
 16777215
 74
     1
 91
        4
 64
     7
 65
   257
 75
     1
175
     1
 42
1.0
 92
        0
 66
   257
 43
1.0
 76
     1
 77
     6
 78
     2
 67
     7
 79
     5
170
     0
171
     0
290
     0
174
     0
 93
       13
 44
0.0
173
     0
291
     1
 45
0.0
1001
ACAD
1000
AcDbSavedByObjectVersion
1070
     0
  0
VISUALSTYLE
  5
38
102
{ACAD_REACTORS
330
2A
102
}
102
{ACAD_XDICTIONARY
360
2AE
102
}
330
2A
100
AcDbVisualStyle
  2
Linepattern
 70
    14
 71
     2
 72
     2
 73
     0
 90
        0
 40
-0.6
 41
-30.0
 62
     5
 63
     7
421
 16777215
 74
     1
 91
        4
 64
     7
 65
   257
 75
     7
175
     7
 42
1.0
 92
        8
 66
     7
 43
1.0
 76
     1
 77
     6
 78
     2
 67
     7
 79
     5
170
     0
171
     0
290
     0
174
     0
 93
        1
 44
0.0
173
     0
291
     1
 45
0.0
1001
ACAD
1000
AcDbSavedByObjectVersion
1070
     0
  0
VISUALSTYLE
  5
33
102
{ACAD_REACTORS
330
2A
102
}
102
{ACAD_XDICTIONARY
360
2A4
102
}
330
2A
100
AcDbVisualStyle
  2
Realistic
 70
     8
 71
     2
 72
     2
 73
     0
 90
        0
 40
-0.6
 41
-30.0
 62
     5
 63
     7
421
 16777215
 74
     1
 91
        0
 64
     7
 65
   257
 75
     1
175
     1
 42
1.0
 92
        8
 66
     8
424
  7895160
 43
1.0
 76
     1
 77
     6
 78
     2
 67
     7
 79
     5
170
     0
171
     0
290
     0
174
     0
 93
       13
 44
0.0
173
     0
291
     0
 45
0.0
1001
ACAD
1000
AcDbSavedByObjectVersion
1070
     0
  0
VISUALSTYLE
  5
37
102
{ACAD_REACTORS
330
2A
102
}
102
{ACAD_XDICTIONARY
360
2AC
102
}
330
2A
100
AcDbVisualStyle
  2
Thicken
 70
    13
 71
     2
 72
     2
 73
     0
 90
        0
 40
-0.6
 41
-30.0
 62
     5
 63
     7
421
 16777215
 74
     1
 91
        4
 64
     7
 65
   257
 75
     1
175
     1
 42
1.0
 92
       12
 66
     7
 43
1.0
 76
     1
 77
     6
 78
     2
 67
     7
 79
     5
170
     0
171
     0
290
     0
174
     0
 93
        1
 44
0.0
173
     0
291
     1
 45
0.0
1001
ACAD
1000
AcDbSavedByObjectVersion
1070
     0
  0
DICTIONARY
  5
2B6
330
3D
100
AcDbDictionary
280
     1
281
     1
  3
ACAD_XREC_ROUNDTRIP
360
2B7
  0
DICTIONARY
  5
2B4
330
3C
100
AcDbDictionary
280
     1
281
     1
  3
ACAD_XREC_ROUNDTRIP
360
2B5
  0
DICTIONARY
  5
2B8
330
3E
100
AcDbDictionary
280
     1
281
     1
  3
ACAD_XREC_ROUNDTRIP
360
2B9
  0
DICTIONARY
  5
29C
330
2F
100
AcDbDictionary
280
     1
281
     1
  3
ACAD_XREC_ROUNDTRIP
360
29D
  0
DICTIONARY
  5
2A0
330
31
100
AcDbDictionary
280
     1
281
     1
  3
ACAD_XREC_ROUNDTRIP
360
2A1
  0
DICTIONARY
  5
29E
330
30
100
AcDbDictionary
280
     1
281
     1
  3
ACAD_XREC_ROUNDTRIP
360
29F
  0
DICTIONARY
  5
2A2
330
32
100
AcDbDictionary
280
     1
281
     1
  3
ACAD_XREC_ROUNDTRIP
360
2A3
  0
DICTIONARY
  5
2AA
330
36
100
AcDbDictionary
280
     1
281
     1
  3
ACAD_XREC_ROUNDTRIP
360
2AB
  0
DICTIONARY
  5
2B2
330
3A
100
AcDbDictionary
280
     1
281
     1
  3
ACAD_XREC_ROUNDTRIP
360
2B3
  0
DICTIONARY
  5
2A6
330
34
100
AcDbDictionary
280
     1
281
     1
  3
ACAD_XREC_ROUNDTRIP
360
2A7
  0
DICTIONARY
  5
2A8
330
35
100
AcDbDictionary
280
     1
281
     1
  3
ACAD_XREC_ROUNDTRIP
360
2A9
  0
DICTIONARY
  5
2B0
330
39
100
AcDbDictionary
280
     1
281
     1
  3
ACAD_XREC_ROUNDTRIP
360
2B1
  0
DICTIONARY
  5
294
330
2B
100
AcDbDictionary
280
     1
281
     1
  3
ACAD_XREC_ROUNDTRIP
360
295
  0
DICTIONARY
  5
296
330
2C
100
AcDbDictionary
280
     1
281
     1
  3
ACAD_XREC_ROUNDTRIP
360
297
  0
DICTIONARY
  5
298
330
2D
100
AcDbDictionary
280
     1
281
     1
  3
ACAD_XREC_ROUNDTRIP
360
299
  0
DICTIONARY
  5
29A
330
2E
100
AcDbDictionary
280
     1
281
     1
  3
ACAD_XREC_ROUNDTRIP
360
29B
  0
DICTIONARY
  5
2AE
330
38
100
AcDbDictionary
280
     1
281
     1
  3
ACAD_XREC_ROUNDTRIP
360
2AF
  0
DICTIONARY
  5
2A4
330
33
100
AcDbDictionary
280
     1
281
     1
  3
ACAD_XREC_ROUNDTRIP
360
2A5
  0
DICTIONARY
  5
2AC
330
37
100
AcDbDictionary
280
     1
281
     1
  3
ACAD_XREC_ROUNDTRIP
360
2AD
  0
XRECORD
  5
2B7
102
{ACAD_REACTORS
330
2B6
102
}
330
2B6
100
AcDbXrecord
280
     1
102
MATERIAL
148
0.0
149
0.0
149
0.0
 93
        0
 94
      127
282
     0
 72
     1
 77
     1
171
     1
175
     1
179
     1
273
     0
  0
XRECORD
  5
2B5
102
{ACAD_REACTORS
330
2B4
102
}
330
2B4
100
AcDbXrecord
280
     1
102
MATERIAL
148
0.0
149
0.0
149
0.0
 93
        0
 94
      127
282
     0
 72
     1
 77
     1
171
     1
175
     1
179
     1
273
     0
  0
XRECORD
  5
2B9
102
{ACAD_REACTORS
330
2B8
102
}
330
2B8
100
AcDbXrecord
280
     1
102
MATERIAL
148
0.0
149
0.0
149
0.0
 93
        0
 94
      127
282
     0
 72
     1
 77
     1
171
     1
175
     1
179
     1
273
     0
  0
XRECORD
  5
29D
102
{ACAD_REACTORS
330
29C
102
}
330
29C
100
AcDbXrecord
280
     1
102
RTVSPropertyOp0
 70
     1
102
RTVSPropertyOp1
 70
     1
102
RTVSPropertyOp2
 70
     1
102
RTVSPropertyOp3
 70
     1
102
RTVSPropertyOp4
 70
     1
102
RTVSPropertyOp5
 70
     1
102
RTVSPropertyOp6
 70
     1
102
RTVSPropertyOp7
 70
     1
102
RTVSPropertyOp8
 70
     1
102
RTVSPropertyOp9
 70
     1
102
RTVSPropertyOp10
 70
     1
102
RTVSPropertyOp11
 70
     1
102
RTVSPropertyOp12
 70
     1
102
RTVSPropertyOp13
 70
     1
102
RTVSPropertyOp14
 70
     1
102
RTVSPropertyOp15
 70
     1
102
RTVSPropertyOp16
 70
     1
102
RTVSPropertyOp17
 70
     1
102
RTVSPropertyOp18
 70
     1
102
RTVSPropertyOp19
 70
     1
102
RTVSPropertyOp20
 70
     1
102
RTVSPropertyOp21
 70
     1
102
RTVSPropertyOp22
 70
     1
102
RTVSPropertyOp23
 70
     1
102
RTVSPropertyOp24
 70
     1
102
RTVSPropertyOp25
 70
     1
102
RTVSPropertyOp26
 70
     1
102
RTVSPropertyOp27
 70
     1
102
RTVSPropertyOp28
 70
     1
102
RTVSPropertyOp29
 70
     1
102
RTVSPropertyOp30
 70
     1
102
RTVSPropertyOp31
 70
     1
102
RTVSPropertyOp32
 70
     1
  0
XRECORD
  5
2A1
102
{ACAD_REACTORS
330
2A0
102
}
330
2A0
100
AcDbXrecord
280
     1
102
RTVSPropertyOp0
 70
     1
102
RTVSPropertyOp1
 70
     1
102
RTVSPropertyOp2
 70
     1
102
RTVSPropertyOp3
 70
     1
102
RTVSPropertyOp4
 70
     1
102
RTVSPropertyOp5
 70
     1
102
RTVSPropertyOp6
 70
     1
102
RTVSPropertyOp7
 70
     1
102
RTVSPropertyOp8
 70
     1
102
RTVSPropertyOp9
 70
     1
102
RTVSPropertyOp10
 70
     1
102
RTVSPropertyOp11
 70
     1
102
RTVSPropertyOp12
 70
     1
102
RTVSPropertyOp13
 70
     1
102
RTVSPropertyOp14
 70
     1
102
RTVSPropertyOp15
 70
     1
102
RTVSPropertyOp16
 70
     1
102
RTVSPropertyOp17
 70
     1
102
RTVSPropertyOp18
 70
     1
102
RTVSPropertyOp19
 70
     1
102
RTVSPropertyOp20
 70
     1
102
RTVSPropertyOp21
 70
     1
102
RTVSPropertyOp22
 70
     1
102
RTVSPropertyOp23
 70
     1
102
RTVSPropertyOp24
 70
     1
102
RTVSPropertyOp25
 70
     1
102
RTVSPropertyOp26
 70
     1
102
RTVSPropertyOp27
 70
     1
102
RTVSPropertyOp28
 70
     1
102
RTVSPropertyOp29
 70
     1
102
RTVSPropertyOp30
 70
     1
102
RTVSPropertyOp31
 70
     1
102
RTVSPropertyOp32
 70
     1
  0
XRECORD
  5
29F
102
{ACAD_REACTORS
330
29E
102
}
330
29E
100
AcDbXrecord
280
     1
102
RTVSPropertyOp0
 70
     1
102
RTVSPropertyOp1
 70
     1
102
RTVSPropertyOp2
 70
     1
102
RTVSPropertyOp3
 70
     1
102
RTVSPropertyOp4
 70
     1
102
RTVSPropertyOp5
 70
     1
102
RTVSPropertyOp6
 70
     1
102
RTVSPropertyOp7
 70
     1
102
RTVSPropertyOp8
 70
     1
102
RTVSPropertyOp9
 70
     1
102
RTVSPropertyOp10
 70
     1
102
RTVSPropertyOp11
 70
     1
102
RTVSPropertyOp12
 70
     1
102
RTVSPropertyOp13
 70
     1
102
RTVSPropertyOp14
 70
     1
102
RTVSPropertyOp15
 70
     1
102
RTVSPropertyOp16
 70
     1
102
RTVSPropertyOp17
 70
     1
102
RTVSPropertyOp18
 70
     1
102
RTVSPropertyOp19
 70
     1
102
RTVSPropertyOp20
 70
     1
102
RTVSPropertyOp21
 70
     1
102
RTVSPropertyOp22
 70
     1
102
RTVSPropertyOp23
 70
     1
102
RTVSPropertyOp24
 70
     1
102
RTVSPropertyOp25
 70
     1
102
RTVSPropertyOp26
 70
     1
102
RTVSPropertyOp27
 70
     1
102
RTVSPropertyOp28
 70
     1
102
RTVSPropertyOp29
 70
     1
102
RTVSPropertyOp30
 70
     1
102
RTVSPropertyOp31
 70
     1
102
RTVSPropertyOp32
 70
     1
  0
XRECORD
  5
2A3
102
{ACAD_REACTORS
330
2A2
102
}
330
2A2
100
AcDbXrecord
280
     1
102
RTVSPropertyOp0
 70
     1
102
RTVSPropertyOp1
 70
     1
102
RTVSPropertyOp2
 70
     1
102
RTVSPropertyOp3
 70
     1
102
RTVSPropertyOp4
 70
     1
102
RTVSPropertyOp5
 70
     1
102
RTVSPropertyOp6
 70
     1
102
RTVSPropertyOp7
 70
     1
102
RTVSPropertyOp8
 70
     1
102
RTVSPropertyOp9
 70
     1
102
RTVSPropertyOp10
 70
     1
102
RTVSPropertyOp11
 70
     1
102
RTVSPropertyOp12
 70
     1
102
RTVSPropertyOp13
 70
     1
102
RTVSPropertyOp14
 70
     1
102
RTVSPropertyOp15
 70
     1
102
RTVSPropertyOp16
 70
     1
102
RTVSPropertyOp17
 70
     1
102
RTVSPropertyOp18
 70
     1
102
RTVSPropertyOp19
 70
     1
102
RTVSPropertyOp20
 70
     1
102
RTVSPropertyOp21
 70
     1
102
RTVSPropertyOp22
 70
     1
102
RTVSPropertyOp23
 70
     1
102
RTVSPropertyOp24
 70
     1
102
RTVSPropertyOp25
 70
     1
102
RTVSPropertyOp26
 70
     1
102
RTVSPropertyOp27
 70
     1
102
RTVSPropertyOp28
 70
     1
102
RTVSPropertyOp29
 70
     1
102
RTVSPropertyOp30
 70
     1
102
RTVSPropertyOp31
 70
     1
102
RTVSPropertyOp32
 70
     1
  0
XRECORD
  5
2AB
102
{ACAD_REACTORS
330
2AA
102
}
330
2AA
100
AcDbXrecord
280
     1
102
RTVSPropertyOp0
 70
     1
102
RTVSPropertyOp1
 70
     1
102
RTVSPropertyOp2
 70
     1
102
RTVSPropertyOp3
 70
     1
102
RTVSPropertyOp4
 70
     1
102
RTVSPropertyOp5
 70
     1
102
RTVSPropertyOp6
 70
     1
102
RTVSPropertyOp7
 70
     1
102
RTVSPropertyOp8
 70
     1
102
RTVSPropertyOp9
 70
     1
102
RTVSPropertyOp10
 70
     1
102
RTVSPropertyOp11
 70
     1
102
RTVSPropertyOp12
 70
     1
102
RTVSPropertyOp13
 70
     1
102
RTVSPropertyOp14
 70
     1
102
RTVSPropertyOp15
 70
     1
102
RTVSPropertyOp16
 70
     1
102
RTVSPropertyOp17
 70
     1
102
RTVSPropertyOp18
 70
     1
102
RTVSPropertyOp19
 70
     1
102
RTVSPropertyOp20
 70
     1
102
RTVSPropertyOp21
 70
     1
102
RTVSPropertyOp22
 70
     1
102
RTVSPropertyOp23
 70
     1
102
RTVSPropertyOp24
 70
     1
102
RTVSPropertyOp25
 70
     1
102
RTVSPropertyOp26
 70
     1
102
RTVSPropertyOp27
 70
     1
102
RTVSPropertyOp28
 70
     1
102
RTVSPropertyOp29
 70
     1
102
RTVSPropertyOp30
 70
     1
102
RTVSPropertyOp31
 70
     1
102
RTVSPropertyOp32
 70
     1
  0
XRECORD
  5
2B3
102
{ACAD_REACTORS
330
2B2
102
}
330
2B2
100
AcDbXrecord
280
     1
102
RTVSPropertyOp0
 70
     1
102
RTVSPropertyOp1
 70
     1
102
RTVSPropertyOp2
 70
     1
102
RTVSPropertyOp3
 70
     1
102
RTVSPropertyOp4
 70
     1
102
RTVSPropertyOp5
 70
     1
102
RTVSPropertyOp6
 70
     1
102
RTVSPropertyOp7
 70
     1
102
RTVSPropertyOp8
 70
     1
102
RTVSPropertyOp9
 70
     1
102
RTVSPropertyOp10
 70
     1
102
RTVSPropertyOp11
 70
     1
102
RTVSPropertyOp12
 70
     1
102
RTVSPropertyOp13
 70
     1
102
RTVSPropertyOp14
 70
     1
102
RTVSPropertyOp15
 70
     1
102
RTVSPropertyOp16
 70
     1
102
RTVSPropertyOp17
 70
     1
102
RTVSPropertyOp18
 70
     1
102
RTVSPropertyOp19
 70
     1
102
RTVSPropertyOp20
 70
     1
102
RTVSPropertyOp21
 70
     1
102
RTVSPropertyOp22
 70
     1
102
RTVSPropertyOp23
 70
     1
102
RTVSPropertyOp24
 70
     1
102
RTVSPropertyOp25
 70
     1
102
RTVSPropertyOp26
 70
     1
102
RTVSPropertyOp27
 70
     1
102
RTVSPropertyOp28
 70
     1
102
RTVSPropertyOp29
 70
     1
102
RTVSPropertyOp30
 70
     1
102
RTVSPropertyOp31
 70
     1
102
RTVSPropertyOp32
 70
     1
  0
XRECORD
  5
2A7
102
{ACAD_REACTORS
330
2A6
102
}
330
2A6
100
AcDbXrecord
280
     1
102
RTVSPropertyOp0
 70
     1
102
RTVSPropertyOp1
 70
     1
102
RTVSPropertyOp2
 70
     1
102
RTVSPropertyOp3
 70
     1
102
RTVSPropertyOp4
 70
     1
102
RTVSPropertyOp5
 70
     1
102
RTVSPropertyOp6
 70
     1
102
RTVSPropertyOp7
 70
     1
102
RTVSPropertyOp8
 70
     1
102
RTVSPropertyOp9
 70
     1
102
RTVSPropertyOp10
 70
     1
102
RTVSPropertyOp11
 70
     1
102
RTVSPropertyOp12
 70
     1
102
RTVSPropertyOp13
 70
     1
102
RTVSPropertyOp14
 70
     1
102
RTVSPropertyOp15
 70
     1
102
RTVSPropertyOp16
 70
     1
102
RTVSPropertyOp17
 70
     1
102
RTVSPropertyOp18
 70
     1
102
RTVSPropertyOp19
 70
     1
102
RTVSPropertyOp20
 70
     1
102
RTVSPropertyOp21
 70
     1
102
RTVSPropertyOp22
 70
     1
102
RTVSPropertyOp23
 70
     1
102
RTVSPropertyOp24
 70
     1
102
RTVSPropertyOp25
 70
     1
102
RTVSPropertyOp26
 70
     1
102
RTVSPropertyOp27
 70
     1
102
RTVSPropertyOp28
 70
     1
102
RTVSPropertyOp29
 70
     1
102
RTVSPropertyOp30
 70
     1
102
RTVSPropertyOp31
 70
     1
102
RTVSPropertyOp32
 70
     1
  0
XRECORD
  5
2A9
102
{ACAD_REACTORS
330
2A8
102
}
330
2A8
100
AcDbXrecord
280
     1
102
RTVSPropertyOp0
 70
     1
102
RTVSPropertyOp1
 70
     1
102
RTVSPropertyOp2
 70
     1
102
RTVSPropertyOp3
 70
     1
102
RTVSPropertyOp4
 70
     1
102
RTVSPropertyOp5
 70
     1
102
RTVSPropertyOp6
 70
     1
102
RTVSPropertyOp7
 70
     1
102
RTVSPropertyOp8
 70
     1
102
RTVSPropertyOp9
 70
     1
102
RTVSPropertyOp10
 70
     1
102
RTVSPropertyOp11
 70
     1
102
RTVSPropertyOp12
 70
     1
102
RTVSPropertyOp13
 70
     1
102
RTVSPropertyOp14
 70
     1
102
RTVSPropertyOp15
 70
     1
102
RTVSPropertyOp16
 70
     1
102
RTVSPropertyOp17
 70
     1
102
RTVSPropertyOp18
 70
     1
102
RTVSPropertyOp19
 70
     1
102
RTVSPropertyOp20
 70
     1
102
RTVSPropertyOp21
 70
     1
102
RTVSPropertyOp22
 70
     1
102
RTVSPropertyOp23
 70
     1
102
RTVSPropertyOp24
 70
     1
102
RTVSPropertyOp25
 70
     1
102
RTVSPropertyOp26
 70
     1
102
RTVSPropertyOp27
 70
     1
102
RTVSPropertyOp28
 70
     1
102
RTVSPropertyOp29
 70
     1
102
RTVSPropertyOp30
 70
     1
102
RTVSPropertyOp31
 70
     1
102
RTVSPropertyOp32
 70
     1
  0
XRECORD
  5
2B1
102
{ACAD_REACTORS
330
2B0
102
}
330
2B0
100
AcDbXrecord
280
     1
102
RTVSPropertyOp0
 70
     1
102
RTVSPropertyOp1
 70
     1
102
RTVSPropertyOp2
 70
     1
102
RTVSPropertyOp3
 70
     1
102
RTVSPropertyOp4
 70
     1
102
RTVSPropertyOp5
 70
     1
102
RTVSPropertyOp6
 70
     1
102
RTVSPropertyOp7
 70
     1
102
RTVSPropertyOp8
 70
     1
102
RTVSPropertyOp9
 70
     1
102
RTVSPropertyOp10
 70
     1
102
RTVSPropertyOp11
 70
     1
102
RTVSPropertyOp12
 70
     1
102
RTVSPropertyOp13
 70
     1
102
RTVSPropertyOp14
 70
     1
102
RTVSPropertyOp15
 70
     1
102
RTVSPropertyOp16
 70
     1
102
RTVSPropertyOp17
 70
     1
102
RTVSPropertyOp18
 70
     1
102
RTVSPropertyOp19
 70
     1
102
RTVSPropertyOp20
 70
     1
102
RTVSPropertyOp21
 70
     1
102
RTVSPropertyOp22
 70
     1
102
RTVSPropertyOp23
 70
     1
102
RTVSPropertyOp24
 70
     1
102
RTVSPropertyOp25
 70
     1
102
RTVSPropertyOp26
 70
     1
102
RTVSPropertyOp27
 70
     1
102
RTVSPropertyOp28
 70
     1
102
RTVSPropertyOp29
 70
     1
102
RTVSPropertyOp30
 70
     1
102
RTVSPropertyOp31
 70
     1
102
RTVSPropertyOp32
 70
     1
  0
XRECORD
  5
295
102
{ACAD_REACTORS
330
294
102
}
330
294
100
AcDbXrecord
280
     1
102
RTVSPropertyOp0
 70
     1
102
RTVSPropertyOp1
 70
     1
102
RTVSPropertyOp2
 70
     1
102
RTVSPropertyOp3
 70
     1
102
RTVSPropertyOp4
 70
     1
102
RTVSPropertyOp5
 70
     1
102
RTVSPropertyOp6
 70
     1
102
RTVSPropertyOp7
 70
     1
102
RTVSPropertyOp8
 70
     1
102
RTVSPropertyOp9
 70
     1
102
RTVSPropertyOp10
 70
     1
102
RTVSPropertyOp11
 70
     1
102
RTVSPropertyOp12
 70
     1
102
RTVSPropertyOp13
 70
     1
102
RTVSPropertyOp14
 70
     1
102
RTVSPropertyOp15
 70
     1
102
RTVSPropertyOp16
 70
     1
102
RTVSPropertyOp17
 70
     1
102
RTVSPropertyOp18
 70
     1
102
RTVSPropertyOp19
 70
     1
102
RTVSPropertyOp20
 70
     1
102
RTVSPropertyOp21
 70
     1
102
RTVSPropertyOp22
 70
     1
102
RTVSPropertyOp23
 70
     1
102
RTVSPropertyOp24
 70
     1
102
RTVSPropertyOp25
 70
     1
102
RTVSPropertyOp26
 70
     1
102
RTVSPropertyOp27
 70
     1
102
RTVSPropertyOp28
 70
     1
102
RTVSPropertyOp29
 70
     1
102
RTVSPropertyOp30
 70
     1
102
RTVSPropertyOp31
 70
     1
102
RTVSPropertyOp32
 70
     1
  0
XRECORD
  5
297
102
{ACAD_REACTORS
330
296
102
}
330
296
100
AcDbXrecord
280
     1
102
RTVSPropertyOp0
 70
     1
102
RTVSPropertyOp1
 70
     1
102
RTVSPropertyOp2
 70
     1
102
RTVSPropertyOp3
 70
     1
102
RTVSPropertyOp4
 70
     1
102
RTVSPropertyOp5
 70
     1
102
RTVSPropertyOp6
 70
     1
102
RTVSPropertyOp7
 70
     1
102
RTVSPropertyOp8
 70
     1
102
RTVSPropertyOp9
 70
     1
102
RTVSPropertyOp10
 70
     1
102
RTVSPropertyOp11
 70
     1
102
RTVSPropertyOp12
 70
     1
102
RTVSPropertyOp13
 70
     1
102
RTVSPropertyOp14
 70
     1
102
RTVSPropertyOp15
 70
     1
102
RTVSPropertyOp16
 70
     1
102
RTVSPropertyOp17
 70
     1
102
RTVSPropertyOp18
 70
     1
102
RTVSPropertyOp19
 70
     1
102
RTVSPropertyOp20
 70
     1
102
RTVSPropertyOp21
 70
     1
102
RTVSPropertyOp22
 70
     1
102
RTVSPropertyOp23
 70
     1
102
RTVSPropertyOp24
 70
     1
102
RTVSPropertyOp25
 70
     1
102
RTVSPropertyOp26
 70
     1
102
RTVSPropertyOp27
 70
     1
102
RTVSPropertyOp28
 70
     1
102
RTVSPropertyOp29
 70
     1
102
RTVSPropertyOp30
 70
     1
102
RTVSPropertyOp31
 70
     1
102
RTVSPropertyOp32
 70
     1
  0
XRECORD
  5
299
102
{ACAD_REACTORS
330
298
102
}
330
298
100
AcDbXrecord
280
     1
102
RTVSPropertyOp0
 70
     1
102
RTVSPropertyOp1
 70
     1
102
RTVSPropertyOp2
 70
     1
102
RTVSPropertyOp3
 70
     1
102
RTVSPropertyOp4
 70
     1
102
RTVSPropertyOp5
 70
     1
102
RTVSPropertyOp6
 70
     1
102
RTVSPropertyOp7
 70
     1
102
RTVSPropertyOp8
 70
     1
102
RTVSPropertyOp9
 70
     1
102
RTVSPropertyOp10
 70
     1
102
RTVSPropertyOp11
 70
     1
102
RTVSPropertyOp12
 70
     1
102
RTVSPropertyOp13
 70
     1
102
RTVSPropertyOp14
 70
     1
102
RTVSPropertyOp15
 70
     1
102
RTVSPropertyOp16
 70
     1
102
RTVSPropertyOp17
 70
     1
102
RTVSPropertyOp18
 70
     1
102
RTVSPropertyOp19
 70
     1
102
RTVSPropertyOp20
 70
     1
102
RTVSPropertyOp21
 70
     1
102
RTVSPropertyOp22
 70
     1
102
RTVSPropertyOp23
 70
     1
102
RTVSPropertyOp24
 70
     1
102
RTVSPropertyOp25
 70
     1
102
RTVSPropertyOp26
 70
     1
102
RTVSPropertyOp27
 70
     1
102
RTVSPropertyOp28
 70
     1
102
RTVSPropertyOp29
 70
     1
102
RTVSPropertyOp30
 70
     1
102
RTVSPropertyOp31
 70
     1
102
RTVSPropertyOp32
 70
     1
  0
XRECORD
  5
29B
102
{ACAD_REACTORS
330
29A
102
}
330
29A
100
AcDbXrecord
280
     1
102
RTVSPropertyOp0
 70
     1
102
RTVSPropertyOp1
 70
     1
102
RTVSPropertyOp2
 70
     1
102
RTVSPropertyOp3
 70
     1
102
RTVSPropertyOp4
 70
     1
102
RTVSPropertyOp5
 70
     1
102
RTVSPropertyOp6
 70
     1
102
RTVSPropertyOp7
 70
     1
102
RTVSPropertyOp8
 70
     1
102
RTVSPropertyOp9
 70
     1
102
RTVSPropertyOp10
 70
     1
102
RTVSPropertyOp11
 70
     1
102
RTVSPropertyOp12
 70
     1
102
RTVSPropertyOp13
 70
     1
102
RTVSPropertyOp14
 70
     1
102
RTVSPropertyOp15
 70
     1
102
RTVSPropertyOp16
 70
     1
102
RTVSPropertyOp17
 70
     1
102
RTVSPropertyOp18
 70
     1
102
RTVSPropertyOp19
 70
     1
102
RTVSPropertyOp20
 70
     1
102
RTVSPropertyOp21
 70
     1
102
RTVSPropertyOp22
 70
     1
102
RTVSPropertyOp23
 70
     1
102
RTVSPropertyOp24
 70
     1
102
RTVSPropertyOp25
 70
     1
102
RTVSPropertyOp26
 70
     1
102
RTVSPropertyOp27
 70
     1
102
RTVSPropertyOp28
 70
     1
102
RTVSPropertyOp29
 70
     1
102
RTVSPropertyOp30
 70
     1
102
RTVSPropertyOp31
 70
     1
102
RTVSPropertyOp32
 70
     1
  0
XRECORD
  5
2AF
102
{ACAD_REACTORS
330
2AE
102
}
330
2AE
100
AcDbXrecord
280
     1
102
RTVSPropertyOp0
 70
     1
102
RTVSPropertyOp1
 70
     1
102
RTVSPropertyOp2
 70
     1
102
RTVSPropertyOp3
 70
     1
102
RTVSPropertyOp4
 70
     1
102
RTVSPropertyOp5
 70
     1
102
RTVSPropertyOp6
 70
     1
102
RTVSPropertyOp7
 70
     1
102
RTVSPropertyOp8
 70
     1
102
RTVSPropertyOp9
 70
     1
102
RTVSPropertyOp10
 70
     1
102
RTVSPropertyOp11
 70
     1
102
RTVSPropertyOp12
 70
     1
102
RTVSPropertyOp13
 70
     1
102
RTVSPropertyOp14
 70
     1
102
RTVSPropertyOp15
 70
     1
102
RTVSPropertyOp16
 70
     1
102
RTVSPropertyOp17
 70
     1
102
RTVSPropertyOp18
 70
     1
102
RTVSPropertyOp19
 70
     1
102
RTVSPropertyOp20
 70
     1
102
RTVSPropertyOp21
 70
     1
102
RTVSPropertyOp22
 70
     1
102
RTVSPropertyOp23
 70
     1
102
RTVSPropertyOp24
 70
     1
102
RTVSPropertyOp25
 70
     1
102
RTVSPropertyOp26
 70
     1
102
RTVSPropertyOp27
 70
     1
102
RTVSPropertyOp28
 70
     1
102
RTVSPropertyOp29
 70
     1
102
RTVSPropertyOp30
 70
     1
102
RTVSPropertyOp31
 70
     1
102
RTVSPropertyOp32
 70
     1
  0
XRECORD
  5
2A5
102
{ACAD_REACTORS
330
2A4
102
}
330
2A4
100
AcDbXrecord
280
     1
102
RTVSPropertyOp0
 70
     1
102
RTVSPropertyOp1
 70
     1
102
RTVSPropertyOp2
 70
     1
102
RTVSPropertyOp3
 70
     1
102
RTVSPropertyOp4
 70
     1
102
RTVSPropertyOp5
 70
     1
102
RTVSPropertyOp6
 70
     1
102
RTVSPropertyOp7
 70
     1
102
RTVSPropertyOp8
 70
     1
102
RTVSPropertyOp9
 70
     1
102
RTVSPropertyOp10
 70
     1
102
RTVSPropertyOp11
 70
     1
102
RTVSPropertyOp12
 70
     1
102
RTVSPropertyOp13
 70
     1
102
RTVSPropertyOp14
 70
     1
102
RTVSPropertyOp15
 70
     1
102
RTVSPropertyOp16
 70
     1
102
RTVSPropertyOp17
 70
     1
102
RTVSPropertyOp18
 70
     1
102
RTVSPropertyOp19
 70
     1
102
RTVSPropertyOp20
 70
     1
102
RTVSPropertyOp21
 70
     1
102
RTVSPropertyOp22
 70
     1
102
RTVSPropertyOp23
 70
     1
102
RTVSPropertyOp24
 70
     1
102
RTVSPropertyOp25
 70
     1
102
RTVSPropertyOp26
 70
     1
102
RTVSPropertyOp27
 70
     1
102
RTVSPropertyOp28
 70
     1
102
RTVSPropertyOp29
 70
     1
102
RTVSPropertyOp30
 70
     1
102
RTVSPropertyOp31
 70
     1
102
RTVSPropertyOp32
 70
     1
  0
XRECORD
  5
2AD
102
{ACAD_REACTORS
330
2AC
102
}
330
2AC
100
AcDbXrecord
280
     1
102
RTVSPropertyOp0
 70
     1
102
RTVSPropertyOp1
 70
     1
102
RTVSPropertyOp2
 70
     1
102
RTVSPropertyOp3
 70
     1
102
RTVSPropertyOp4
 70
     1
102
RTVSPropertyOp5
 70
     1
102
RTVSPropertyOp6
 70
     1
102
RTVSPropertyOp7
 70
     1
102
RTVSPropertyOp8
 70
     1
102
RTVSPropertyOp9
 70
     1
102
RTVSPropertyOp10
 70
     1
102
RTVSPropertyOp11
 70
     1
102
RTVSPropertyOp12
 70
     1
102
RTVSPropertyOp13
 70
     1
102
RTVSPropertyOp14
 70
     1
102
RTVSPropertyOp15
 70
     1
102
RTVSPropertyOp16
 70
     1
102
RTVSPropertyOp17
 70
     1
102
RTVSPropertyOp18
 70
     1
102
RTVSPropertyOp19
 70
     1
102
RTVSPropertyOp20
 70
     1
102
RTVSPropertyOp21
 70
     1
102
RTVSPropertyOp22
 70
     1
102
RTVSPropertyOp23
 70
     1
102
RTVSPropertyOp24
 70
     1
102
RTVSPropertyOp25
 70
     1
102
RTVSPropertyOp26
 70
     1
102
RTVSPropertyOp27
 70
     1
102
RTVSPropertyOp28
 70
     1
102
RTVSPropertyOp29
 70
     1
102
RTVSPropertyOp30
 70
     1
102
RTVSPropertyOp31
 70
     1
102
RTVSPropertyOp32
 70
     1
  0
ENDSEC
  0
EOF
